<?xml version="1.0" standalone="no"?><!DOCTYPE svg PUBLIC "-//W3C//DTD SVG 1.1//EN" "http://www.w3.org/Graphics/SVG/1.1/DTD/svg11.dtd" ><svg xmlns="http://www.w3.org/2000/svg"><metadata></metadata><defs><font id="Founder:FZXiaoBiaoSong-B05S	Regular" horiz-adv-x="256"><font-face font-family="FZXiaoBiaoSong-B05S" font-weight="400" font-stretch="normal" units-per-em="256" panose-1="2 1 6 1 3 1 1 1 1 1" ascent="231" descent="-74" x-height="1" bbox="-4 -43 256 217" underline-thickness="12" underline-position="-62" unicode-range="U+0025-ff0c" /><missing-glyph horiz-adv-x="256"  /><glyph glyph-name="" unicode="%" d="M61 101 q0 -14 13 -14 q28 6 37 58 q-1 9 -8 12 q-2 0 -5 2 q-2 3 -3 3 q-23 -9 -34 -61 ZM167 24 q-1 -17 13 -16 q27 7 36 55 q-1 18 -14 19 q-23 -4 -35 -58 ZM186 177 l-100 -177 l-15 0 l89 156 l-1 0 q-15 -6 -28 -6 q-7 -1 -12 1 q-5 -71 -55 -76 q-30 2 -32 34 q3 53 55 65 q10 0 20 -7 q1 0 2 0 q8 -9 24 -8 q21 0 39 14 q1 3 5 4 l9 0 ZM137 30 q5 55 56 65 q31 -1 32 -31 q-9 -64 -54 -66 q-32 2 -34 32 Z" /><glyph glyph-name="" unicode="-" d="M137 54 l-129 0 l0 22 l129 0 l0 -22 Z" /><glyph glyph-name="" unicode="/" d="M77 177 l-60 -180 l-21 0 l58 180 l23 0 Z" /><glyph glyph-name="" unicode="0" d="M81 57 l0 58 q0 55 -17 54 q-19 0 -17 -54 l0 -58 q-1 -56 17 -53 q11 0 14 14 q1 8 2 19 q0 10 1 20 ZM6 85 q2 83 58 91 q54 -9 58 -91 q-5 -82 -58 -86 q-55 4 -58 86 Z" /><glyph glyph-name="" unicode="1" d="M113 6 l0 -6 l-96 0 l0 6 q35 -2 31 26 l0 98 q0 18 -10 18 q-6 -1 -21 -6 l0 6 l64 28 l5 0 l0 -146 q-4 -27 27 -24 Z" /><glyph glyph-name="" unicode="2" d="M122 54 l-11 -54 l-107 0 l0 6 q76 76 73 108 q-4 32 -31 33 q-21 -1 -31 -23 l-7 0 q18 51 56 52 q46 -4 48 -48 q0 -27 -30 -55 l-41 -39 l39 0 q32 -4 36 20 l6 0 Z" /><glyph glyph-name="" unicode="3" d="M15 134 l-6 3 q21 37 58 39 q41 -2 43 -34 q0 -23 -21 -33 q29 -14 31 -46 q-7 -62 -77 -65 q-38 1 -39 22 q1 12 16 14 q11 0 25 -14 q12 -11 20 -11 q25 1 26 31 q0 35 -52 51 l0 4 q33 9 33 34 q-1 25 -27 26 q-18 0 -30 -21 Z" /><glyph glyph-name="" unicode="4" d="M105 65 l17 0 l0 -28 l-17 0 l0 -37 l-37 0 l0 37 l-63 0 l0 29 q24 39 80 110 l20 0 l0 -111 ZM69 65 l0 76 l-1 0 l-53 -76 l54 0 Z" /><glyph glyph-name="" unicode="5" d="M38 141 l-5 -21 q36 -1 56 -13 q25 -16 26 -47 q-4 -59 -73 -60 q-35 0 -36 20 q0 15 16 16 q8 0 24 -12 q16 -10 24 -10 q24 1 25 26 q-2 23 -27 34 q-15 6 -48 10 q-4 0 -7 1 l25 88 l82 0 l-11 -32 l-71 0 Z" /><glyph glyph-name="" unicode="6" d="M83 40 q1 58 -22 56 q-10 0 -11 -3 q-1 -1 -2 -9 q-1 -9 -1 -14 q-2 -70 20 -66 q18 -2 16 36 ZM120 176 l0 -7 q-56 -11 -68 -66 q9 5 23 5 q46 -3 47 -54 q-7 -54 -56 -55 q-58 2 -59 74 q7 87 113 103 Z" /><glyph glyph-name="" unicode="7" d="M122 173 l-60 -173 l-24 0 l51 138 l-53 0 q-20 1 -25 -22 l-7 0 l12 57 l106 0 Z" /><glyph glyph-name="" unicode="8" d="M38 40 q1 -34 24 -35 q23 0 23 30 q1 23 -34 43 q-1 -1 -2 -3 q-12 -16 -11 -35 ZM43 148 q0 -23 33 -40 q11 13 11 29 q-1 31 -23 32 q-19 -2 -21 -21 ZM68 176 q46 -1 49 -37 q0 -25 -35 -36 q38 -24 39 -54 q-3 -49 -60 -50 q-52 1 -54 41 q-1 32 39 43 q-37 19 -36 48 q2 43 58 45 Z" /><glyph glyph-name="" unicode="9" d="M8 -1 l0 4 q52 9 69 67 q-6 -3 -12 -4 q-5 -2 -12 -1 q-46 2 -46 54 q5 55 55 57 q57 -4 59 -76 q-8 -90 -113 -101 ZM46 133 q-2 -59 21 -56 q10 0 12 3 q0 1 0 9 q1 10 2 14 q0 39 -5 52 q-4 14 -15 14 q-18 1 -15 -36 Z" /><glyph glyph-name="" unicode=":" d="M21 99 q1 20 21 22 q20 -2 22 -22 q-2 -20 -22 -21 q-20 1 -21 21 ZM21 18 q1 20 21 22 q20 -2 22 -22 q-2 -18 -22 -19 q-20 1 -21 19 Z" /><glyph glyph-name="" unicode="a" d="M48 60 l50 0 l-26 63 l-24 -63 ZM176 6 l0 -6 l-83 0 l0 6 q1 0 3 0 q20 1 18 10 q-1 9 -12 34 l-57 0 q-13 -28 -12 -33 q0 -9 19 -11 q1 0 2 0 l0 -6 l-52 0 l0 6 q15 -1 25 30 l57 141 l7 0 l57 -135 q15 -41 28 -36 Z" /><glyph glyph-name="" unicode="l" d="M163 58 l-10 -58 l-148 0 l0 6 q23 0 22 19 l0 123 q0 18 -22 19 l0 6 l89 0 l0 -6 q-29 2 -26 -24 l0 -121 q-3 -16 23 -14 q46 -2 65 50 l7 0 Z" /><glyph glyph-name="" unicode="n" d="M4 0 l0 6 q24 0 23 21 l0 121 q-17 20 -22 19 l0 6 l54 0 l89 -109 l0 77 q2 25 -24 26 l0 6 l55 0 l0 -6 q-23 -3 -20 -21 l0 -149 l-7 0 l-114 137 l0 -102 q-3 -26 24 -26 l0 -6 l-58 0 Z" /><glyph glyph-name="" unicode="q" d="M100 168 q-45 -2 -46 -82 q0 -82 46 -82 q44 0 45 82 q-2 80 -45 82 ZM187 -28 l1 -6 q-24 -9 -47 -9 q-54 3 -71 43 q-57 19 -61 83 q4 87 91 94 q84 -7 90 -91 q-3 -70 -65 -86 q13 -29 45 -31 q4 0 12 3 q3 0 5 0 Z" /><glyph glyph-name="" unicode="t" d="M131 6 l0 -6 l-91 0 l0 6 q28 -2 25 24 l0 135 q-46 0 -50 -43 l-7 0 l1 51 l153 0 l1 -51 l-8 0 q-5 44 -49 43 l0 -135 q-4 -26 25 -24 Z" /><glyph glyph-name="" unicode="u" d="M179 173 l0 -6 q-22 -1 -20 -22 l0 -82 q-1 -35 -14 -49 q-17 -16 -50 -17 q-34 1 -52 14 q-19 14 -18 47 l0 85 q2 24 -21 24 l0 6 l87 0 l0 -6 q-28 2 -25 -24 l0 -85 q-2 -51 37 -50 q46 0 45 55 l0 78 q2 26 -25 26 l0 6 l56 0 Z" /><glyph glyph-name="" unicode="a" d="M75 26 l0 37 q-31 -10 -31 -31 q0 -17 13 -17 q7 0 16 9 q1 1 2 2 ZM121 16 l4 -5 q-13 -12 -28 -13 q-20 0 -22 16 q-18 -14 -40 -16 q-29 2 -29 26 q-3 28 69 48 l0 18 q1 23 -22 23 q-14 -1 -15 -9 q0 -3 2 -7 q4 -6 5 -11 q-3 -14 -17 -14 q-17 0 -17 17 q3 30 48 32 q49 -2 51 -35 l0 -67 q0 -6 6 -6 q1 -1 3 1 l2 2 Z" /><glyph glyph-name="" unicode="&#x3010;" d="M115 -35 l0 251 l61 0 q-36 -47 -34 -126 q-2 -72 34 -125 l-61 0 Z" /><glyph glyph-name="" unicode="&#x3011;" d="M142 -35 l-61 0 q34 51 34 125 q0 79 -34 126 l61 0 l0 -251 Z" /><glyph glyph-name="" unicode="&#x4e00;" d="M12 89 l188 0 q9 13 18 24 q2 0 4 0 q18 -13 30 -23 q2 -5 -1 -6 l-226 0 q-9 -1 -17 -1 l-5 7 q4 -1 9 -1 Z" /><glyph glyph-name="" unicode="&#x4e03;" d="M250 125 l-130 -36 l0 -69 q-1 -14 16 -13 l64 0 q20 -7 32 48 q0 1 1 0 q2 0 2 -1 q-7 -35 3 -51 q4 -3 5 -8 q-1 -14 -24 -16 l-95 0 q-35 0 -33 23 l0 78 l-56 -15 l-19 -8 l-12 9 q6 1 13 3 l74 20 l0 96 q-1 10 -3 16 q-2 6 0 8 q24 0 41 -9 q0 -2 -7 -7 q-2 -2 -2 -2 l0 -94 l77 22 q9 23 13 32 q2 3 7 2 q2 -2 7 -5 q22 -14 27 -16 q1 -5 -1 -7 Z" /><glyph glyph-name="" unicode="&#x4e07;" d="M112 127 l64 0 q7 10 10 13 q0 0 3 0 q1 0 2 0 q2 -2 4 -3 q18 -8 26 -14 q0 -3 0 -4 l-9 -6 q-5 -87 -18 -113 q-11 -27 -46 -32 q-5 2 -5 3 q-2 24 -35 34 q-2 3 2 6 q44 -11 55 8 q13 17 16 102 l-69 0 q-3 -116 -105 -145 q-3 -1 -4 2 q-1 2 2 3 q49 26 62 66 q15 39 13 136 l-55 0 q-9 -1 -17 -1 l-5 7 q4 -1 9 -1 l188 0 q9 13 18 24 q2 0 4 0 q18 -13 30 -23 q2 -5 -1 -6 l-128 0 q2 -3 -8 -11 q-1 -13 -2 -24 q-1 -12 -1 -21 Z" /><glyph glyph-name="" unicode="&#x4e08;" d="M218 -29 q-55 15 -93 49 q-34 -36 -110 -51 q-5 2 -1 6 q72 25 95 62 q-29 33 -46 87 q3 3 5 1 q19 -43 51 -68 q9 25 9 62 l0 24 l-103 0 q-9 -1 -17 -1 l-5 7 q4 -1 9 -1 l116 0 l0 48 q-1 6 -2 15 q0 3 2 3 q18 -2 38 -9 q0 -1 0 -4 q-3 -3 -9 -6 l0 -47 l44 0 q0 0 0 1 q12 16 17 20 q1 0 3 0 q25 -15 29 -22 q1 -4 -2 -4 l-91 0 l0 -24 q0 -49 -17 -78 q48 -32 109 -32 q3 -3 0 -5 q-20 -11 -27 -31 q-1 -1 -4 -2 Z" /><glyph glyph-name="" unicode="&#x4e09;" d="M22 175 l154 0 q13 19 18 23 q0 0 4 0 q18 -13 30 -23 q2 -4 -1 -6 l-191 0 q-10 0 -17 0 l-5 7 q4 -1 8 -1 ZM38 81 l130 0 q9 13 18 24 q2 0 4 0 q18 -13 30 -23 q2 -5 -1 -6 l-167 0 q-2 -1 -17 -1 l-5 7 q4 -1 8 -1 ZM14 -10 l183 0 q8 12 19 22 q1 0 3 0 q22 -13 30 -22 q2 -3 -1 -5 l-220 0 q-2 0 -17 -1 l-5 7 q4 0 8 -1 Z" /><glyph glyph-name="" unicode="&#x4e0a;" d="M101 -13 l0 201 q0 2 -2 8 q-2 6 0 9 q3 2 22 -3 q16 -3 17 -6 q0 -3 -5 -6 q-2 -2 -2 -2 l0 -80 l48 0 q7 13 18 24 q1 0 4 0 q18 -13 30 -23 q2 -5 -2 -6 l-98 0 l0 -116 l66 0 q8 13 19 22 q1 0 3 0 q24 -14 30 -21 q2 -4 -1 -6 l-220 0 q-2 0 -17 -1 l-5 7 q4 0 8 -1 l87 0 Z" /><glyph glyph-name="" unicode="&#x4e0b;" d="M136 118 l0 -86 q0 -22 1 -53 q-1 -5 -16 -8 q-16 -2 -16 3 q1 35 2 54 l0 152 l-79 0 q-2 -1 -17 -1 l-5 7 q4 -1 8 -1 l183 0 q8 13 19 24 q1 0 3 0 q22 -15 30 -23 q2 -5 -1 -6 l-106 0 q1 -3 -6 -8 l0 -50 q42 -4 66 -25 q14 -18 5 -34 q-14 -18 -27 -2 q-4 3 -9 15 q-13 32 -35 42 Z" /><glyph glyph-name="" unicode="&#x4e0d;" d="M144 183 l-1 0 q14 -6 18 -9 q3 -2 0 -5 q-3 -4 -12 -5 q-7 -14 -17 -29 q9 -3 11 -6 q2 -3 -4 -5 l0 -27 l2 -121 q-2 -5 -20 -7 q-14 -1 -14 5 l2 123 l1 9 q-50 -56 -101 -81 q-3 -1 -4 0 q0 2 2 4 q66 52 109 154 l-91 0 q-9 -1 -17 -1 l-5 7 q4 -1 9 -1 l180 0 q9 13 18 24 q2 0 4 0 q18 -13 30 -23 q2 -5 -1 -6 l-99 0 ZM156 114 q67 -20 89 -56 q7 -18 -5 -31 q-13 -10 -24 5 q-5 6 -10 15 q-27 45 -51 65 q-2 2 1 2 Z" /><glyph glyph-name="" unicode="&#x4e0e;" d="M20 49 l120 0 q0 0 0 1 q12 16 17 20 q0 1 3 0 q25 -15 29 -22 q1 -4 -2 -4 l-154 0 q-9 -1 -17 -1 l-5 7 q4 -1 9 -1 ZM204 100 l-1 0 l-126 0 q-5 -9 -6 -11 q-2 -2 -4 0 q-3 1 -12 7 q-9 6 -11 8 q-2 3 0 5 l9 7 q7 80 9 96 q0 3 2 3 q7 -2 25 -7 q3 -2 7 -2 q0 -2 0 -4 l-8 -7 q-2 -7 -3 -31 l112 0 q8 13 19 24 q1 0 3 0 q22 -15 30 -23 q2 -5 -1 -6 l-163 0 q-2 -11 -3 -24 q-2 -12 -4 -30 l124 0 q4 6 9 11 q1 1 4 0 q1 -1 3 -3 q19 -10 24 -14 q0 -1 0 -4 q-3 -3 -9 -7 q-6 -120 -69 -121 q-5 1 -5 2 q-4 24 -31 32 q-4 4 2 6 q42 -12 54 5 q14 15 20 88 Z" /><glyph glyph-name="" unicode="&#x4e14;" d="M78 52 l0 -70 l79 0 l0 70 l-79 0 ZM78 121 l0 -64 l79 0 l0 64 l-79 0 ZM78 188 l0 -61 l79 0 l0 61 l-79 0 ZM51 -18 l0 201 q-1 10 -3 17 q-1 6 0 7 q10 -3 30 -14 l74 0 q0 0 1 2 q8 12 10 12 q18 -7 32 -17 q0 -3 -6 -8 q-2 -2 -2 -2 l0 -198 l10 0 q8 14 19 22 q1 0 3 0 q22 -13 30 -22 q2 -3 -1 -5 l-220 0 q-2 0 -17 -1 l-5 7 q4 0 8 -1 l37 0 Z" /><glyph glyph-name="" unicode="&#x4e16;" d="M165 47 l0 74 l-37 0 l0 -74 l37 0 ZM68 -15 l-1 0 q-1 -4 -6 -9 q-3 -2 -6 -1 q-3 2 -11 7 q-9 5 -11 6 q-2 1 0 5 q2 4 10 8 l0 120 l-18 0 q-9 0 -17 0 l-5 7 q4 -1 9 -1 l31 0 l0 64 l-1 13 q0 -1 0 -1 q0 1 1 2 q1 -1 3 -1 q20 -2 29 -4 q2 -2 1 -3 q-3 -4 -6 -6 l0 -64 l31 0 q0 24 0 40 l0 26 l-1 13 q0 1 1 2 q2 -1 4 -1 q21 -2 29 -4 q1 -1 0 -4 q-1 -3 -6 -6 l0 -66 l37 0 l0 69 q0 1 -2 6 q-2 7 0 10 q21 0 37 -9 q0 -3 -4 -6 q-2 -1 -1 -1 l0 -27 q0 -16 0 -42 l11 0 q2 2 8 9 q6 8 9 11 q2 1 4 0 q21 -13 29 -21 q0 -4 -3 -5 l-58 0 q0 -38 2 -87 q0 -6 -14 -9 q-17 -2 -18 3 l0 13 l-37 0 l0 -16 q-1 -6 -16 -8 q-13 -2 -13 4 q1 58 2 100 l-31 0 l0 -131 l127 0 q8 12 19 22 q1 0 3 0 q22 -13 30 -22 q2 -3 -1 -5 l-180 0 Z" /><glyph glyph-name="" unicode="&#x4e18;" d="M80 -13 l59 0 l0 108 l-59 0 l0 -108 ZM80 166 l0 -66 l104 0 q9 13 18 24 q2 0 4 0 q18 -13 30 -23 q2 -5 -1 -6 l-64 0 q0 -2 -3 -6 q-3 -4 -2 -5 l0 -97 l31 0 q8 13 19 22 q1 0 3 0 q24 -14 30 -21 q2 -4 -1 -6 l-223 0 q-9 0 -17 -1 l-5 7 q4 0 9 -1 l41 0 l0 169 q-1 9 -2 16 q-1 7 0 8 q2 0 24 -10 q51 3 100 33 q1 1 5 0 q18 -13 33 -22 q1 -3 -1 -4 q-11 -1 -36 -4 q-56 -8 -96 -7 Z" /><glyph glyph-name="" unicode="&#x4e1a;" d="M243 133 l-11 -5 q-35 -69 -64 -105 l0 -39 l29 0 q8 14 19 22 q0 0 3 0 q24 -14 30 -21 q2 -4 -1 -6 l-223 0 q-9 0 -17 -1 l-5 7 q4 0 9 -1 l73 0 l0 209 l-1 15 q0 0 1 1 q4 0 13 -2 q10 -2 21 -5 q0 -4 0 -4 q0 -1 -5 -4 q-2 -1 -2 -1 l0 -209 l29 0 l0 223 q2 -1 6 -1 q23 -2 28 -5 q3 -3 0 -6 q-2 -2 -7 -4 l0 -154 q30 72 37 118 q1 2 4 2 q20 -8 34 -19 q1 -3 0 -5 ZM20 149 q45 -46 52 -88 q2 -20 -15 -27 q-18 -4 -22 15 q-1 3 -1 12 q1 5 1 8 q3 36 -19 77 q0 4 4 3 Z" /><glyph glyph-name="" unicode="&#x4e1c;" d="M120 4 l0 69 l-60 0 q-4 -5 -7 -8 q-4 -1 -4 0 q-15 12 -21 20 q-3 2 0 7 l11 4 q13 20 34 57 l-40 0 q-7 -1 -14 -1 l-8 8 q4 -1 9 -1 l56 0 q14 26 25 52 q1 1 5 2 q19 -8 32 -16 q1 -4 -1 -4 l-12 -5 q-1 -2 -3 -5 q-7 -15 -12 -24 l90 0 q13 19 18 23 q0 0 4 0 q18 -13 30 -23 q2 -5 -1 -6 l-144 0 q-27 -52 -43 -74 l56 0 l0 62 q0 1 2 2 q8 0 30 -6 q3 -3 0 -6 l-6 -5 l0 -21 l0 -26 l46 0 q3 -1 10 12 q5 8 8 11 q0 0 4 0 q18 -13 30 -23 q2 -5 -1 -6 l-97 0 l1 -80 q2 -23 -32 -28 q-3 1 -3 3 q-3 21 -28 27 q-3 3 1 5 q20 0 27 0 q8 0 8 4 ZM97 38 l-14 -5 q-33 -34 -74 -60 q-2 -1 -4 1 q-1 3 1 4 q36 30 57 80 q0 3 5 2 q16 -7 30 -16 q2 -3 -1 -6 ZM165 52 q55 -15 71 -41 q8 -18 -6 -30 q-16 -8 -23 8 q-14 36 -45 58 q-1 4 3 5 Z" /><glyph glyph-name="" unicode="&#x4e24;" d="M141 132 l0 48 l-29 0 q-2 -2 -8 -9 q-2 -25 -4 -39 l41 0 ZM141 127 l-41 0 q-2 -6 -1 -11 q-2 -17 -4 -31 q25 -8 30 -23 q2 -16 -8 -22 q-14 -6 -18 7 q0 1 0 3 q1 3 1 6 q3 12 -6 25 q-6 -40 -40 -73 q-3 -3 -5 -1 q-2 2 0 5 q26 43 26 104 q0 3 0 6 l0 5 l-29 0 l0 -145 q-1 -7 -14 -9 q-13 -1 -13 6 l0 152 q-1 8 -1 13 q-1 1 0 1 q1 1 3 1 q12 -5 28 -14 l26 0 l0 48 l-51 0 q5 -1 -10 -1 l-7 8 q1 -1 10 -2 l178 0 q7 13 18 24 q1 0 4 0 q18 -13 30 -23 q2 -5 -2 -6 l-66 0 q-10 -8 -8 -19 q-1 -6 -1 -15 q-1 -9 -1 -14 l26 0 q7 8 10 12 q0 0 2 0 q1 0 2 0 q17 -9 27 -15 q1 -2 0 -4 q-3 -3 -7 -6 l0 -126 q-1 -21 -30 -24 q-6 1 -7 3 q3 18 -27 25 q-3 2 -3 3 q1 2 4 2 q35 -3 37 8 l0 117 l-35 0 q-2 -18 -5 -31 q0 -3 0 -4 q-2 -7 -3 -11 q35 -12 37 -38 q-12 -25 -28 -6 q-2 4 -1 10 q3 16 -9 30 q-16 -54 -63 -74 q-3 -2 -5 0 q-3 2 0 4 q53 35 50 120 Z" /><glyph glyph-name="" unicode="&#x4e2a;" d="M104 -28 l0 131 q0 3 -1 8 q-1 4 0 8 q1 2 3 3 q21 -3 36 -7 q-1 -3 -1 -3 q-1 -2 -4 -4 q-4 -3 -3 -5 l0 -127 q-18 -16 -30 -4 ZM131 194 l1 0 q27 -61 116 -80 q2 -2 1 -3 q-26 -6 -30 -24 q-2 -3 -3 -3 q-66 32 -89 104 q-34 -71 -121 -112 q-2 -1 -4 0 q0 2 2 3 q74 50 92 132 q1 3 3 3 q24 -5 40 -14 q0 -1 0 -3 q0 -1 0 -1 q-2 -1 -5 -1 q-2 -1 -3 -1 Z" /><glyph glyph-name="" unicode="&#x4e2d;" d="M136 143 l0 -59 l64 0 l0 59 l-64 0 ZM106 84 l0 59 l-65 0 l0 -59 l65 0 ZM106 -23 l0 102 l-65 0 l0 -16 q-21 -20 -29 -3 l1 82 l0 18 q6 5 27 -12 l66 0 l0 51 q-1 2 -2 7 q-2 7 0 10 q3 1 23 -3 q15 -4 16 -6 q0 -3 -5 -6 q-2 -2 -2 -2 l0 -51 l59 0 q8 10 11 13 q1 1 4 0 q15 -5 30 -16 q1 -2 0 -4 q-4 -3 -11 -6 l3 -67 q-24 -18 -32 0 l0 11 l-64 0 l1 -99 q1 -9 -16 -11 q-17 -1 -15 8 Z" /><glyph glyph-name="" unicode="&#x4e30;" d="M112 -26 l0 59 l-84 0 q-10 0 -17 0 l-5 7 q4 -1 8 -1 l98 0 l0 56 l-63 0 q-9 -1 -17 -1 l-5 7 q4 -1 9 -1 l76 0 l0 59 l-79 0 q-9 -1 -17 -1 l-5 7 q4 -1 9 -1 l92 0 l0 35 q-1 1 -1 6 q-2 5 0 8 q0 0 -1 0 q0 2 3 2 q30 -4 38 -6 q0 -1 0 -3 q0 -1 0 -1 q-11 -5 -9 -6 l0 -35 l54 0 q0 0 0 1 q12 16 17 20 q1 0 4 0 q22 -14 28 -21 q0 -6 -2 -5 l-101 0 l0 -59 l45 0 q4 6 15 18 q1 1 5 0 q10 -5 22 -17 q3 -6 0 -6 l-87 0 l0 -56 l59 0 q1 1 4 6 q9 11 13 14 q2 2 5 1 q22 -16 26 -22 q0 -1 0 -2 q0 -3 -1 -3 l-106 0 l0 -57 q-2 -5 -18 -7 q-12 0 -12 5 Z" /><glyph glyph-name="" unicode="&#x4e34;" d="M98 -18 l0 87 q-1 8 -2 16 q0 1 3 2 q22 -8 27 -14 l74 0 q7 7 10 11 q3 0 4 0 q11 -7 22 -14 q2 -2 0 -6 q-3 -2 -6 -4 l0 -80 q-15 -16 -25 -2 l0 12 l-82 0 l0 -6 q-14 -13 -25 -2 ZM176 -5 l29 0 l0 73 l-21 0 q-1 -2 -2 -2 q-7 -5 -6 -6 l0 -65 ZM8 17 l0 150 q-1 8 -1 11 q-1 2 1 2 q18 -2 31 -7 q0 -2 -1 -4 q-2 -2 -4 -4 q-2 -1 -2 -1 l0 -144 q-15 -17 -24 -3 ZM53 -24 l0 225 q-1 10 -1 13 q0 0 2 1 q14 -3 30 -8 q1 -2 0 -4 q-1 -1 -4 -3 q-2 -1 -2 -1 l0 -220 q-14 -15 -25 -3 ZM134 159 l63 0 q3 0 10 11 q6 9 9 12 q0 0 3 0 q22 -15 30 -23 q2 -5 -1 -6 l-117 0 q-22 -33 -42 -56 q-4 -2 -4 3 q25 48 37 111 q0 2 4 1 q4 -1 22 -7 q9 -2 14 -3 q3 -2 0 -6 q-1 -1 -3 -2 q-7 -4 -7 -6 q-9 -16 -18 -29 ZM144 144 q45 -12 45 -41 q-1 -14 -14 -16 q-15 -2 -20 10 q-2 3 -1 13 q-2 20 -12 29 q-2 1 -1 3 q1 2 3 2 ZM152 68 l-29 0 l0 -1 l0 -72 l29 0 l0 73 Z" /><glyph glyph-name="" unicode="&#x4e38;" d="M33 106 q20 -4 40 -8 q1 19 2 42 l0 2 l-39 -3 l-15 -3 l-8 7 l9 0 l53 5 l0 48 q0 2 -2 9 q-3 6 -1 8 q3 2 22 -3 q16 -3 17 -6 q0 -3 -5 -6 q-2 -2 -2 -2 l0 -46 l37 3 q7 10 10 13 q1 2 5 1 q2 -2 10 -6 q14 -7 20 -10 q1 -2 0 -4 q-4 -2 -13 -7 l-2 -125 q0 -10 16 -11 l16 0 q21 -4 37 54 q2 2 3 0 q-11 -39 1 -55 q4 -3 4 -5 q-1 -20 -40 -21 l-27 0 q-40 0 -38 22 l4 150 l-43 -4 q-1 -32 -5 -56 q17 -8 25 -15 q15 -16 8 -33 q-11 -17 -25 -1 q-1 0 -4 4 q-7 10 -11 16 q-21 -68 -81 -89 q-2 0 -2 1 q-1 2 1 2 q45 26 60 107 q-17 15 -38 22 q-2 0 -2 1 q1 1 3 2 Z" /><glyph glyph-name="" unicode="&#x4e39;" d="M86 191 l0 -102 l79 0 l0 102 l-79 0 ZM59 55 l0 29 l-29 0 q-8 -1 -16 -1 l-6 7 q4 -1 9 -1 l42 0 l0 96 q-1 11 -3 18 q-1 6 0 7 q10 -3 30 -14 l74 0 q0 0 2 3 q3 4 7 7 q1 0 2 0 q19 -7 28 -15 q1 -2 0 -3 q-3 -4 -7 -5 l1 -94 l11 0 q0 0 0 1 q12 16 17 20 q0 1 3 0 q25 -15 29 -22 q1 -4 -2 -4 l-57 0 l1 -91 q-2 -15 -31 -19 q-1 1 -5 1 q-7 21 -29 26 q-4 3 1 5 q33 -6 34 4 l0 74 l-79 0 l0 -21 q-4 -62 -75 -87 q-2 1 -3 2 q0 2 2 2 q46 25 49 75 ZM106 165 q38 -11 41 -40 q-1 -18 -17 -22 q-18 -3 -18 14 q0 2 0 6 q5 25 -8 39 q-1 1 -1 2 q1 1 3 1 Z" /><glyph glyph-name="" unicode="&#x4e3a;" d="M43 198 q36 -10 43 -28 q6 -15 -6 -25 q-14 -9 -22 4 q-3 7 -3 17 q-2 14 -14 28 q-2 1 -1 3 q1 1 3 1 ZM111 121 l-70 0 q-9 0 -17 0 l-5 7 q4 -1 9 -1 l84 0 q3 19 5 41 q2 22 3 45 q0 1 5 2 q15 -3 36 -10 q1 -4 0 -5 q-3 -2 -10 -7 q-3 -38 -10 -66 l64 0 q4 7 10 12 q3 1 6 0 q7 -4 23 -14 q4 -3 7 -4 q1 -3 -1 -5 q-3 -3 -10 -6 q-9 -88 -23 -111 q-13 -27 -54 -34 q-5 1 -5 2 q-1 24 -29 31 q-4 4 2 6 q44 -13 59 10 q17 23 21 107 l-71 0 q-5 -18 -11 -34 q33 -13 41 -36 q2 -17 -12 -23 q-16 -5 -19 11 q-1 2 -1 6 q0 4 0 10 q0 10 -11 27 q-27 -69 -118 -109 q-4 2 -3 7 q85 50 105 141 Z" /><glyph glyph-name="" unicode="&#x4e3b;" d="M109 -18 l0 78 l-63 0 q-8 -1 -16 -1 l-6 7 q4 -1 9 -1 l76 0 l0 75 l-79 0 q-8 -1 -16 -1 l-6 7 q4 -1 9 -1 l178 0 q7 13 18 24 q1 0 4 0 q18 -13 30 -23 q2 -5 -2 -6 l-100 0 q0 -3 -6 -8 l0 -67 l37 0 q9 13 18 24 q2 0 4 0 q18 -13 30 -23 q2 -5 -1 -6 l-88 0 l0 -78 l61 0 q9 14 18 22 q2 0 4 0 q18 -11 30 -22 q2 -3 -1 -5 l-226 0 q-9 0 -17 -1 l-5 7 q4 0 9 -1 l97 0 ZM88 208 q53 -3 58 -32 q0 -20 -19 -25 q-21 -3 -22 16 q0 0 0 1 q1 19 -18 37 q-2 1 1 3 Z" /><glyph glyph-name="" unicode="&#x4e49;" d="M87 211 q39 -16 46 -40 q5 -18 -12 -26 q-18 -6 -24 11 q-2 2 -1 9 q1 4 1 7 q0 14 -14 35 q-1 4 4 4 ZM214 184 l-12 -7 q-25 -85 -62 -128 q45 -35 108 -41 q1 -5 0 -8 q-23 -5 -34 -28 q-3 -3 -7 -3 q-52 25 -86 59 q-38 -34 -113 -59 q-6 4 -2 7 q61 24 100 69 q-46 55 -63 147 q2 3 6 1 q25 -83 72 -128 q37 55 49 137 q1 2 5 2 q26 -9 39 -15 q1 -1 0 -5 Z" /><glyph glyph-name="" unicode="&#x4e4b;" d="M232 138 l-17 -4 q-61 -60 -148 -114 q74 -30 184 -5 q3 -2 2 -5 q-19 -12 -20 -32 q-2 -2 -5 -4 q-114 -6 -156 27 q-13 11 -24 11 q-16 -5 -26 -36 q-1 0 -1 0 q-4 0 -4 1 q-9 19 -13 29 q-2 2 0 5 q21 13 31 15 q12 3 24 -1 q84 70 117 120 l-138 0 q-8 0 -16 0 l-6 7 q4 -1 9 -1 l148 0 q3 7 15 17 q2 0 6 0 q17 -7 38 -23 q3 -4 0 -7 ZM87 207 q45 -2 50 -27 q0 -17 -17 -21 q-18 -2 -19 14 q0 0 0 1 q1 16 -15 31 q-1 1 1 2 Z" /><glyph glyph-name="" unicode="&#x4e4c;" d="M17 23 l123 0 q1 1 4 6 q9 11 13 14 q0 1 3 0 q21 -12 29 -21 q1 -4 -2 -5 l-157 0 q-8 0 -16 0 l-6 7 q4 -1 9 -1 ZM132 198 l-12 -5 q-8 -9 -20 -21 l63 0 q6 10 11 13 q22 -9 32 -17 q0 -2 -6 -7 q-3 -2 -2 -2 l0 -27 q2 -46 -37 -54 q-5 0 -5 3 q-6 19 -29 24 q-5 1 0 7 q48 -13 44 36 l0 19 l-93 0 l0 -102 l125 0 q7 10 10 14 q3 0 5 -1 q11 -5 26 -14 q1 -2 1 -5 q-1 -2 -4 -4 q-4 -2 -4 -3 q4 -78 -44 -85 q-5 1 -5 2 q-4 20 -29 27 q-3 4 0 5 q54 -16 49 59 l-133 0 q-3 -5 -7 -7 q-2 -3 -4 0 q-3 1 -12 8 q-9 6 -11 8 q-2 3 0 5 q2 2 10 7 l0 80 q-1 11 -3 18 q-1 6 0 7 q10 -3 30 -14 l8 0 q5 17 12 40 q0 2 4 1 q14 -4 31 -11 q-1 -4 -1 -4 Z" /><glyph glyph-name="" unicode="&#x4e50;" d="M64 89 l56 0 l0 75 q25 -2 34 -6 q3 -2 0 -5 q-4 -4 -7 -5 l0 -27 l0 -32 l50 0 q3 0 10 12 q6 9 9 12 q1 0 3 0 q22 -15 30 -23 q2 -5 -1 -6 l-100 0 l1 -85 q3 -29 -31 -32 q-4 0 -5 2 q-3 22 -31 27 q-3 4 1 6 q25 -2 30 -1 q7 1 7 11 l0 72 l-59 0 q-3 -5 -6 -7 q-2 -3 -6 -1 q-4 2 -16 11 q-3 3 -4 4 q-3 3 0 5 q2 3 8 9 q1 9 2 30 q0 11 0 25 q0 14 1 28 q0 3 4 2 q6 -3 18 -9 q4 -2 7 -3 q60 11 119 36 q2 0 5 0 q13 -11 29 -25 q0 -1 -1 -4 q-92 -10 -152 -13 q-2 -42 -5 -78 q0 -4 0 -5 ZM76 74 q16 -7 29 -17 q0 -1 -1 -4 q-3 -2 -7 -3 q-5 -1 -7 -2 q-30 -33 -77 -64 q-5 1 -3 5 q36 33 61 84 q3 1 5 1 ZM166 62 q56 -15 75 -39 q9 -16 -2 -26 q-14 -12 -24 1 q-3 2 -5 6 q-3 7 -5 12 q-13 23 -41 42 q-2 3 2 4 Z" /><glyph glyph-name="" unicode="&#x4e5d;" d="M142 0 l7 142 l-37 -4 q2 -124 -101 -163 q-3 1 -4 2 q0 1 2 2 q72 42 73 156 l-48 -4 l-15 -2 l-8 7 l11 0 l61 6 q0 11 0 25 l0 18 q-1 5 -1 11 q-1 6 -2 12 q0 1 2 2 q24 -3 38 -9 q1 -1 0 -3 q-2 -2 -6 -5 q-3 -2 -2 -2 l0 -24 q0 -12 0 -22 l35 3 q5 8 7 11 q2 0 4 0 q19 -8 29 -15 q1 -3 -1 -4 q-3 -3 -7 -5 l-6 -118 q1 -9 14 -10 l10 0 q28 -6 42 49 q3 2 6 -2 q-15 -43 -3 -48 q6 -5 5 -13 q-3 -13 -24 -14 l-58 0 q-25 0 -23 21 Z" /><glyph glyph-name="" unicode="&#x4e5f;" d="M195 108 l0 33 l-48 -21 l0 -100 q-25 -13 -27 3 l0 86 l-42 -18 l0 -76 q0 -15 18 -15 l72 0 q66 -5 73 56 q3 3 6 -1 q-8 -33 2 -50 q4 -5 4 -8 q3 -24 -85 -23 l-80 0 q-37 1 -37 43 l0 63 l-19 -8 q-1 -2 -14 -7 l-14 3 l8 3 l39 16 l0 72 l-1 13 q0 -1 0 -1 q0 2 1 2 q1 -1 3 -1 q20 -2 29 -4 q2 -2 1 -3 q-3 -4 -6 -6 l0 -61 l42 18 l0 83 l-1 13 q0 -1 1 1 q1 -1 4 -1 q20 -2 28 -4 q2 -2 1 -3 q-3 -4 -6 -6 l0 -72 l42 18 q8 13 11 18 q1 2 5 2 q14 -4 32 -13 q1 -2 -1 -5 q-2 -2 -9 -7 q-1 -65 -9 -83 q-7 -21 -33 -26 q-4 -2 -5 1 q-6 19 -26 30 q-2 5 1 5 q43 -18 40 41 Z" /><glyph glyph-name="" unicode="&#x4e66;" d="M121 137 l0 -58 l39 0 q0 7 2 22 q0 8 1 17 q1 10 2 19 l-44 0 ZM213 73 l-92 0 l0 -92 q-19 -20 -28 -4 l0 96 l-66 0 l-19 0 l-5 7 q6 -2 15 -1 l75 0 l0 58 l-47 0 q-7 0 -14 0 l-8 7 q3 -1 12 -1 l57 0 l0 56 l-1 14 q0 1 1 3 q3 -1 7 -2 q16 -2 27 -6 q0 -3 1 -3 q-1 -2 -5 -5 q-1 -1 -2 -1 l0 -56 l39 0 q7 7 10 11 q2 1 4 1 q6 -4 15 -11 q6 -4 10 -6 q-1 -1 0 -3 q1 -2 1 -2 q-1 -2 -5 -3 q-3 -1 -3 -2 q-1 -12 -4 -34 q-2 -10 -2 -15 l22 0 q1 0 4 4 q3 4 6 6 q1 0 3 0 q5 -3 18 -12 q6 -3 10 -5 q0 -1 2 -4 q-2 -1 -11 -5 q-3 -77 -48 -77 q-1 1 -4 3 q-5 17 -25 28 q-3 2 1 4 q29 -9 38 1 q9 9 11 51 ZM163 203 q33 0 59 -14 q23 -15 13 -33 q-16 -17 -31 6 q-2 2 -4 6 q-3 4 -4 7 q-10 11 -34 24 q-2 2 1 4 Z" /><glyph glyph-name="" unicode="&#x4e70;" d="M189 159 l16 32 l-169 0 q-2 -1 -17 -1 l-5 7 q4 -1 8 -1 l181 0 q7 8 9 12 q3 1 6 0 q16 -16 32 -29 q2 -5 -3 -6 q-27 2 -53 -17 q-1 -1 -1 -1 q-6 -1 -4 4 ZM39 128 q48 -5 52 -29 q0 -14 -12 -20 q-14 -4 -17 9 q0 0 0 3 q-7 25 -24 34 q-2 2 1 3 ZM105 156 q4 -15 -6 -22 q-14 -8 -21 3 q-1 1 -2 3 q0 2 0 4 q-7 20 -25 31 q-1 0 0 4 q46 -2 54 -23 ZM150 65 l50 0 q3 -1 11 13 q4 8 7 11 q2 0 4 0 q18 -13 30 -23 q2 -5 -1 -6 l-103 0 q-9 -29 -23 -41 q-38 -36 -114 -42 q-4 0 -5 2 q0 3 4 4 q68 17 89 42 q12 16 19 35 l-90 0 q-2 -1 -17 -1 l-6 7 q0 0 2 -1 q8 0 13 0 l100 0 q13 38 10 90 q0 3 0 4 q-1 2 -2 8 q0 7 0 10 q0 1 3 1 q5 -1 20 -4 q11 -2 19 -2 q2 -1 1 -4 q-1 -2 -4 -4 q-3 -4 -3 -5 q-1 -3 -2 -15 q-4 -51 -12 -79 ZM146 41 q1 -1 3 -1 q61 -5 83 -31 q15 -18 1 -32 q-15 -9 -28 13 q-24 30 -60 43 q-6 4 1 8 Z" /><glyph glyph-name="" unicode="&#x4e71;" d="M40 63 l0 -65 l56 0 l0 65 l-56 0 ZM83 164 l0 -16 l-2 -27 l18 0 q7 11 15 18 q1 1 3 0 q13 -8 23 -19 q1 -3 -1 -4 l-58 0 l-4 -48 l11 0 q1 0 5 4 q3 4 5 5 q0 1 5 1 q11 -5 25 -14 q1 -2 0 -3 q-2 -2 -4 -3 q-2 -2 -3 -3 l0 -71 q-17 -12 -25 0 l0 9 l-56 0 l0 -11 q-11 -14 -24 -3 l0 84 q-2 13 -1 14 q1 2 4 2 q13 -5 21 -11 l16 0 l0 48 l-31 0 q-9 -1 -17 -1 l-6 7 q1 -1 10 -1 l44 0 l0 50 q-23 -3 -37 -4 q-13 -1 -15 0 q-3 1 -1 5 q66 19 97 35 q2 1 5 0 q3 -4 18 -15 q8 -6 10 -7 q2 -3 0 -5 q-11 -3 -47 -6 q0 0 1 -1 q2 -1 1 -4 q-1 -2 -5 -5 ZM200 2 l16 0 q12 0 21 44 q1 4 2 6 q4 3 7 -2 q-7 -42 5 -49 q6 -17 -21 -22 l-49 0 q-34 0 -33 35 q0 2 1 3 l0 176 l-1 15 q1 0 2 1 q12 0 33 -6 q3 -3 0 -5 q-2 -2 -7 -5 l0 -178 q-1 -15 24 -13 Z" /><glyph glyph-name="" unicode="&#x4e7e;" d="M45 95 l51 0 l0 29 l-51 0 l0 -29 ZM45 65 l51 0 l0 24 l-51 0 l0 -24 ZM83 196 l-3 -29 l16 0 q1 1 7 9 q6 7 8 9 q0 0 2 0 q1 0 2 0 q18 -11 25 -19 q2 -4 -1 -5 l-59 0 l-3 -32 l14 0 q2 3 10 11 q1 1 5 -1 q9 -5 20 -11 q2 -2 1 -5 q-1 -1 -2 -3 q-1 -1 -5 -4 l3 -56 q-1 -6 -14 -8 q-13 -2 -13 4 l0 4 l-6 0 q-4 -4 -5 -8 l1 -27 l13 0 q7 11 15 18 q1 1 3 0 q13 -8 23 -19 q1 -3 -1 -4 l-53 0 l2 -40 q-1 -5 -12 -8 q-15 -3 -16 1 q-1 4 0 13 q0 11 1 17 l0 17 l-33 0 q-2 -1 -17 -1 l-5 7 q4 -1 8 -1 l47 0 l0 35 l-16 0 l0 -3 q-1 -5 -12 -8 q-12 -2 -13 3 q-1 2 0 18 q1 11 1 15 l0 55 q16 -4 24 -11 l11 0 l0 32 l-28 0 q-10 0 -17 0 l-5 7 q4 -1 8 -1 l42 0 l0 29 q-2 8 -2 14 q-2 1 2 2 q16 -1 33 -5 q2 -2 1 -3 q-1 -1 -2 -2 q-5 -4 -5 -6 ZM168 153 l32 0 q9 13 18 24 q2 0 4 0 q18 -13 30 -23 q2 -5 -1 -6 l-86 0 q2 0 -1 0 q-14 -23 -32 -42 q-2 -2 -3 1 q19 38 28 103 q0 1 5 2 q1 -1 6 -3 q24 -9 29 -10 q1 -3 0 -4 q-7 -3 -10 -7 q-9 -19 -19 -35 ZM184 97 l-23 0 q-9 0 -17 0 l-5 7 q4 -1 9 -1 l36 0 q3 4 9 10 q2 0 5 0 q9 -7 23 -18 q1 -4 -1 -5 q-2 -1 -6 -1 q-5 0 -6 0 q-31 -40 -39 -75 q0 -10 12 -10 l24 0 q25 -4 35 46 q1 0 2 0 q1 0 1 -1 q-6 -27 4 -43 q4 -6 4 -8 q-2 -16 -30 -19 l-43 0 q-37 2 -39 22 q2 36 45 96 Z" /><glyph glyph-name="" unicode="&#x4e86;" d="M141 135 l0 -108 q0 -6 0 -20 q1 -10 1 -14 q-6 -12 -38 -17 q-2 0 -4 3 q-11 21 -33 27 q-3 0 -3 2 q0 1 3 2 q29 -6 45 -1 l0 120 q-1 8 -2 22 q-1 1 -1 2 q1 1 3 1 q0 -1 2 -1 q23 -7 30 -9 q8 10 19 24 q15 18 19 23 l-138 0 q-2 -1 -17 -1 l-5 7 q4 -1 8 -1 l151 0 q2 1 6 6 q2 2 4 4 q3 1 6 0 q19 -11 37 -22 q0 -1 0 -5 q-4 -1 -3 -1 q-11 -2 -15 -3 q-51 -26 -70 -36 q-1 -1 -4 -3 q-1 -1 -1 -1 Z" /><glyph glyph-name="" unicode="&#x4e89;" d="M49 127 l68 0 q5 15 19 45 l-50 0 q-28 -29 -49 -44 q3 -1 12 -1 ZM131 79 l2 -38 l46 0 l0 38 l-48 0 ZM131 110 l0 -21 l0 -5 l48 0 l0 37 l-41 0 q0 -2 -4 -6 q-4 -4 -3 -5 ZM104 8 l0 28 l-50 0 q-8 -1 -16 -1 l-6 7 q4 -1 9 -1 l63 0 l0 38 l-79 0 q-9 -1 -17 -1 l-5 7 q4 -1 9 -1 l92 0 l0 37 l-44 0 q-2 -1 -17 -1 l-6 7 q-4 -3 -11 -8 q-10 -7 -15 -11 q-5 0 -3 4 q39 36 68 101 q2 3 5 3 q24 -9 36 -14 q2 -2 0 -5 l-12 -4 q-8 -8 -14 -16 l43 0 q3 6 14 14 q1 2 6 1 q1 -1 4 -3 q20 -9 30 -15 q2 -3 0 -7 q-23 1 -63 -40 l48 0 q0 0 1 2 q6 8 10 11 q2 1 4 0 q14 -5 25 -17 q1 -1 0 -4 q-1 -2 -8 -6 l1 -29 l2 0 q4 6 15 18 q2 1 4 0 q17 -9 25 -19 q2 -4 -1 -4 l-45 0 l2 -51 q-4 -8 -19 -10 q-10 0 -10 10 l0 8 l-46 0 l1 -46 q1 -21 -35 -26 q-4 1 -4 3 q-4 25 -32 31 q-4 2 0 6 q40 -6 41 4 Z" /><glyph glyph-name="" unicode="&#x4e8b;" d="M134 57 l0 -24 l50 0 l0 24 l-50 0 ZM134 87 l0 -24 l50 0 l0 24 l-50 0 ZM134 148 l0 -27 l45 0 l0 27 l-45 0 ZM107 121 l0 27 l-46 0 l0 -27 l46 0 ZM107 0 l0 28 l-63 0 q-2 -1 -17 -1 l-5 7 q4 -1 8 -1 l77 0 l0 24 l-82 0 q-9 0 -17 0 l-5 7 q4 -1 9 -1 l95 0 l0 24 l-66 0 l-17 0 l-2 6 q4 -1 8 -1 l77 0 l0 24 l-46 0 l0 -8 q-4 -6 -17 -6 q-7 1 -7 9 l0 26 l-1 23 q0 1 2 1 q14 -3 23 -8 l46 0 l0 19 l-79 0 q-2 -1 -17 -1 l-5 7 q4 -1 8 -1 l93 0 l0 19 l-2 15 q0 0 1 1 q15 -1 34 -7 q1 -1 1 -4 q-2 -4 -7 -5 l0 -19 l61 0 q7 13 18 24 q1 0 4 0 q18 -13 30 -23 q2 -5 -2 -6 l-111 0 l0 -19 l39 0 q8 10 9 9 q25 -7 33 -15 q-1 -3 -9 -7 l0 -29 q-24 -13 -27 2 l0 3 l-45 0 l0 -24 l45 0 q3 5 8 9 q2 1 4 0 q16 -6 26 -11 q2 -2 1 -3 q-5 -7 -7 -8 l0 -15 q2 1 7 8 q5 7 8 9 q1 0 3 0 q14 -10 23 -20 q1 -3 -1 -4 l-39 0 l1 -36 q0 -7 -13 -10 q-15 -2 -16 4 l0 13 l-50 0 l0 -46 q-8 -9 -32 -11 q-4 1 -4 3 q-8 17 -31 24 q-3 2 0 2 q35 -5 40 0 Z" /><glyph glyph-name="" unicode="&#x4e8c;" d="M28 164 l148 0 q9 13 18 24 q2 0 4 0 q18 -13 30 -23 q2 -5 -1 -6 l-186 0 q-9 -1 -17 -1 l-5 7 q4 -1 9 -1 ZM14 1 l183 0 q8 13 19 24 q1 0 3 0 q22 -15 30 -23 q2 -2 -1 -4 l-220 0 q-2 0 -17 -1 l-5 5 q4 -1 8 -1 Z" /><glyph glyph-name="" unicode="&#x4e8e;" d="M109 2 l0 98 l-84 0 q-9 -1 -17 -1 l-5 7 q4 -1 9 -1 l97 0 l0 75 l-65 0 q-2 -1 -17 -1 l-5 7 q4 -1 8 -1 l143 0 q8 13 19 24 q1 0 3 0 q22 -15 30 -23 q2 -5 -1 -6 l-79 0 q0 -3 -6 -8 l0 -67 l58 0 q8 13 19 24 q1 0 3 0 q22 -15 30 -23 q2 -5 -1 -6 l-109 0 l0 -73 q0 -13 0 -27 q1 -8 1 -11 q-5 -13 -32 -14 q-3 0 -4 2 q-11 19 -34 23 q-1 2 1 2 q29 -3 38 0 Z" /><glyph glyph-name="" unicode="&#x4e91;" d="M44 180 l121 0 q8 13 19 24 q1 0 3 0 q22 -15 30 -23 q2 -5 -1 -6 l-159 0 q-9 -1 -17 -1 l-5 7 q4 -1 9 -1 ZM98 100 l-68 0 q-8 -1 -16 -1 l-6 7 q4 -1 9 -1 l180 0 q8 13 19 24 q1 0 3 0 q22 -15 30 -23 q2 -5 -1 -6 l-116 0 q8 -4 14 -9 q1 -2 0 -4 l-14 -3 q-27 -35 -63 -69 q79 3 118 4 q-10 16 -30 36 q-2 3 3 6 q55 -19 69 -47 q9 -19 -6 -31 q-17 -10 -26 10 q-1 3 -3 7 q-2 6 -3 11 q-6 -2 -19 -4 q-96 -19 -116 -27 q-7 -1 -8 1 q-2 3 -7 11 q-8 11 -11 19 q-2 3 1 5 q41 19 67 84 Z" /><glyph glyph-name="" unicode="&#x4e92;" d="M163 119 l-59 0 l-16 -75 l63 0 q5 34 12 75 ZM150 39 l-65 0 q-1 -2 -2 -4 q-2 -2 -2 -3 q-3 -3 -6 0 q-2 0 -5 3 q-17 10 -20 14 q-3 1 0 5 q3 1 11 9 l27 117 l-52 0 q-2 -1 -17 -1 l-5 7 q4 -1 8 -1 l159 0 q8 13 19 24 q1 0 3 0 q22 -15 30 -23 q2 -5 -1 -6 l-107 0 q1 -4 -10 -8 l-10 -48 l59 0 l0 1 q1 5 7 10 q2 0 4 0 q20 -10 28 -16 q0 -1 0 -4 l-8 -7 l-24 -126 l26 0 q8 14 19 22 q1 0 3 0 q22 -13 30 -22 q2 -3 -1 -5 l-218 0 q-8 0 -16 -1 l-6 7 q4 0 9 -1 l122 0 q5 20 11 57 Z" /><glyph glyph-name="" unicode="&#x4e94;" d="M197 81 l-8 -97 l11 0 q9 14 18 22 q0 0 4 0 q21 -12 30 -21 q2 -4 -1 -6 l-223 0 q-2 0 -17 -1 l-5 7 q4 0 8 -1 l50 0 l23 108 l-43 0 q-2 -1 -17 -1 l-5 7 q4 -1 8 -1 l58 0 l16 78 l-68 0 q-2 -1 -17 -1 l-5 7 q4 -1 8 -1 l165 0 q7 13 18 24 q1 0 4 0 q18 -13 30 -23 q2 -5 -2 -6 l-96 0 q-2 -3 -7 -5 q-3 -2 -3 -3 l-14 -70 l51 0 q4 5 10 13 q1 1 4 0 q13 -8 26 -20 q1 -2 -1 -4 q-5 -2 -10 -5 ZM160 -16 l11 108 l-55 0 l-23 -108 l67 0 Z" /><glyph glyph-name="" unicode="&#x4e9a;" d="M136 -18 l0 198 l-19 0 q0 -1 -3 -4 q-4 -5 -4 -7 l0 -187 l26 0 ZM211 144 l29 -14 q3 -2 3 -4 q0 -2 -4 -4 l-7 -3 q-28 -44 -69 -103 l0 -34 l37 0 q9 14 18 22 q2 0 4 0 q18 -11 30 -22 q2 -3 -1 -5 l-221 0 q-8 0 -16 -1 l-6 7 q4 0 9 -1 l66 0 l0 198 l-53 0 q-8 -1 -16 -1 l-6 7 q4 -1 9 -1 l175 0 q9 13 18 24 q2 0 4 0 q18 -13 30 -23 q2 -5 -1 -6 l-70 0 q0 -2 -5 -6 q-6 -4 -5 -5 l0 -138 l41 113 q1 3 7 0 ZM35 36 q0 4 0 12 q2 10 2 16 q2 31 -18 71 q0 2 3 2 q43 -42 50 -95 q-1 -20 -18 -25 q-19 -1 -19 19 Z" /><glyph glyph-name="" unicode="&#x4ea4;" d="M132 159 l65 0 q1 2 3 4 q10 14 16 19 q0 0 3 0 q22 -15 30 -23 q2 -4 -1 -6 l-220 0 q-9 0 -16 0 l-6 7 q4 -1 8 -1 l106 0 q-3 1 -6 5 q-3 3 -3 10 q-3 18 -16 32 q-2 1 -2 2 q0 1 3 2 q43 -3 51 -27 q3 -19 -15 -24 ZM78 145 q17 -8 34 -16 q0 -1 0 -4 q-11 -4 -12 -6 q-43 -39 -88 -53 q-2 -1 -3 0 q0 1 2 3 q40 30 63 74 q0 1 4 2 ZM153 136 q59 -2 81 -34 q8 -35 -22 -29 q-7 4 -18 21 q-20 31 -41 39 q-2 0 -2 1 q0 1 2 2 ZM215 -31 q-50 12 -84 43 q-45 -35 -118 -39 q-3 1 -3 2 q-1 2 2 2 q60 8 103 54 q-20 25 -29 64 q1 2 4 1 q11 -30 36 -51 q16 24 23 56 q0 1 5 1 q18 -8 32 -15 q1 -3 0 -4 q-2 -1 -3 -1 q-6 -1 -6 -4 q-11 -30 -29 -50 q43 -26 96 -26 q2 -1 0 -2 q-16 -8 -26 -29 q-1 -1 -3 -2 Z" /><glyph glyph-name="" unicode="&#x4eab;" d="M20 172 l177 0 q8 13 19 24 q1 0 3 0 q22 -15 30 -23 q2 -5 -1 -6 l-215 0 q-9 -1 -17 -1 l-5 7 q4 -1 9 -1 ZM86 143 l0 -35 l79 0 l0 35 l-79 0 ZM142 49 l0 -16 l59 0 q0 0 0 1 q12 16 17 20 q1 1 3 0 q25 -15 29 -22 q1 -4 -2 -4 l-106 0 l0 -17 q0 -5 0 -15 q1 -10 1 -13 q-5 -11 -33 -15 q-2 0 -4 3 q-10 20 -32 26 q-2 1 -2 3 q1 0 3 0 q31 -5 37 0 l0 28 l-82 0 q-8 -1 -16 -1 l-6 7 q4 -1 9 -1 l95 0 l0 19 q-1 1 -2 5 q-1 4 -1 6 q0 2 2 3 q9 -1 28 -5 q4 0 6 0 q7 7 15 15 l-98 0 q-8 -1 -16 -1 l-6 7 q4 -1 9 -1 l111 0 q3 4 12 11 q-7 1 -7 8 l0 3 l-79 0 l0 -6 q-20 -14 -27 0 l0 40 q-1 11 -3 18 q-1 6 0 7 q10 -3 30 -14 l77 0 q8 10 11 11 q24 -8 30 -17 q-1 -2 -7 -6 q-2 -1 -2 -1 l0 -35 q-2 -7 -18 -9 q9 -4 34 -20 q-1 -3 -1 -3 q-4 -1 -12 -1 q-8 -1 -11 -1 q-20 -4 -45 -14 q-1 -2 0 -3 ZM97 216 q42 -1 48 -23 q1 -13 -11 -19 q-14 -5 -19 5 q-2 2 -3 8 q-4 18 -16 25 q-2 3 1 4 Z" /><glyph glyph-name="" unicode="&#x4eac;" d="M14 167 l186 0 q13 19 18 23 q0 0 4 0 q18 -13 30 -23 q2 -4 -1 -6 l-223 0 q-10 0 -17 0 l-5 7 q4 -1 8 -1 ZM83 127 l0 -48 l96 0 l0 48 l-96 0 ZM120 0 l0 73 l-37 0 l0 -2 q-1 -7 -15 -11 q-15 -2 -15 5 l3 59 q0 9 -1 18 q0 1 3 2 q4 -3 12 -6 q8 -4 13 -6 l90 0 q8 8 11 12 q1 1 5 0 q13 -5 26 -15 q2 -1 0 -3 q-1 -2 -6 -4 q-1 0 -1 0 l3 -54 q-1 -6 -17 -8 q-15 -1 -15 5 l0 8 l-24 0 q4 -4 -6 -8 l0 -77 q-5 -18 -32 -21 q-5 1 -5 2 q-7 21 -32 27 q-3 4 0 4 q38 -5 40 0 ZM97 215 q47 -2 50 -27 q0 -17 -16 -21 q-18 -2 -19 14 q0 16 -15 32 q-1 0 0 2 ZM76 54 q14 -5 33 -16 q1 -3 -1 -4 q-2 -2 -6 -3 q-3 0 -3 0 q-42 -31 -91 -46 q-3 2 -2 3 q39 23 66 65 q0 0 4 1 ZM164 49 q57 -7 73 -38 q5 -16 -8 -25 q-13 -6 -24 9 q-3 4 -7 11 q-9 25 -35 40 q-2 0 -2 1 q1 1 3 2 Z" /><glyph glyph-name="" unicode="&#x4ead;" d="M83 143 l0 -32 l82 0 l0 32 l-82 0 ZM56 100 l0 60 q15 -3 30 -12 l74 0 q7 11 11 13 q21 -9 31 -18 q0 -2 -10 -8 l0 -35 q-21 -15 -27 0 l0 5 l-82 0 l0 -5 q-21 -15 -27 0 ZM115 0 l0 41 l-47 0 q-10 0 -17 0 l-5 7 q4 -1 8 -1 l111 0 q6 8 16 18 q0 0 3 0 q13 -9 22 -20 q2 -3 -1 -4 l-54 0 q-2 -3 -6 -4 q-5 -2 -4 -6 l3 -49 q-9 -13 -32 -14 q-3 2 -4 3 q-8 20 -31 25 q-3 3 1 4 q25 -5 37 0 ZM126 172 l61 0 q7 13 18 24 q1 0 4 0 q18 -13 30 -23 q2 -5 -2 -6 l-199 0 q-8 -1 -16 -1 l-6 7 q4 -1 9 -1 l90 0 q-5 1 -7 6 q-2 2 -2 9 q1 16 -11 26 q-1 1 1 2 q39 -3 43 -25 q0 -14 -13 -18 ZM211 79 l-171 0 q4 -26 -11 -35 q-28 -9 -24 20 q1 2 7 6 q16 9 14 28 q1 2 3 2 q6 -8 9 -16 l169 0 q6 8 12 13 q1 1 3 0 q12 -8 29 -21 q1 -8 -3 -8 q-8 1 -18 1 q-12 -3 -27 -11 q-3 -1 -2 2 q5 10 10 19 Z" /><glyph glyph-name="" unicode="&#x4eae;" d="M160 108 l-69 0 l0 -8 q-19 -13 -24 0 l0 35 l-1 23 q-1 0 1 1 q18 -8 24 -11 l64 0 q6 8 9 9 q26 -8 33 -15 q-1 -3 -10 -7 l0 -31 q-1 -6 -13 -8 q-14 -2 -14 4 l0 8 ZM91 113 l69 0 l0 30 l-69 0 l0 -30 ZM107 52 q2 -85 -95 -82 q-2 1 -2 2 q0 1 2 1 q78 13 65 95 q0 3 3 2 q11 -5 27 -13 l32 0 q7 10 10 11 q14 -4 28 -14 q0 -2 -6 -6 q-3 -4 -3 -4 l0 -37 q-1 -9 13 -9 l22 0 q22 -6 34 38 q0 1 1 1 q1 0 2 -1 q-7 -25 4 -36 q4 -3 4 -6 q-3 -20 -29 -23 l-41 0 q-38 1 -37 19 l0 62 l-34 0 ZM131 172 l61 0 q9 13 18 24 q2 0 4 0 q18 -13 30 -23 q2 -5 -1 -6 l-207 0 q-2 -1 -17 -1 l-5 7 q4 -1 8 -1 l96 0 q-5 2 -6 5 q-2 2 -3 9 q-2 20 -14 27 q-1 1 1 2 q37 0 46 -22 q2 -16 -11 -21 ZM205 81 l-160 0 q4 -19 -9 -33 q-12 -9 -23 -3 q-11 8 -5 21 q2 5 10 11 q13 10 12 29 q-1 2 2 1 q6 -6 12 -20 l159 0 q6 9 9 12 q3 1 6 0 q19 -11 33 -24 q0 -5 -2 -7 q-32 2 -54 -14 q-5 -1 -4 4 q7 12 14 23 Z" /><glyph glyph-name="" unicode="&#x4eb2;" d="M179 159 q3 -2 10 -5 q7 -4 11 -5 q0 -4 0 -4 q-1 -1 -4 -1 q-5 -1 -6 -2 q-4 -5 -9 -15 q-10 -16 -16 -24 l40 0 q1 1 8 9 q6 7 8 9 q-1 0 3 0 q13 -8 23 -18 q3 -5 1 -6 l-95 0 q-1 0 -1 0 q-2 -2 -4 -3 q-1 -1 -4 -5 l0 -29 l49 0 q0 0 0 1 q12 16 17 20 q1 0 3 0 q21 -14 26 -21 q0 -2 0 -2 q2 -4 1 -3 l-96 0 l0 -59 q-4 -21 -29 -27 q-5 1 -5 2 q-5 17 -25 26 q-1 1 1 3 q22 -4 31 3 l0 52 l-68 0 q-9 -1 -18 -1 l-9 7 q7 -1 14 -1 l81 0 l0 37 l-84 0 q-8 0 -16 0 l-6 7 q4 -1 9 -1 l131 0 q2 9 4 19 q6 24 8 37 l-114 0 q-9 -1 -17 -1 l-5 7 q4 -1 9 -1 l160 0 q0 0 0 1 q12 16 17 20 q0 0 3 0 q20 -12 26 -21 q0 -2 0 -2 q2 -4 1 -3 l-64 0 ZM104 214 q39 -5 42 -28 q1 -15 -12 -21 q-16 -4 -18 10 q0 6 0 13 q-2 17 -13 22 q0 2 1 4 ZM78 157 q30 -11 35 -35 q0 -15 -13 -19 q-15 -2 -18 12 q-1 1 0 11 q0 1 1 2 q0 17 -9 26 q0 3 4 3 ZM73 50 q14 -7 27 -16 q0 -1 0 -5 q-5 -2 -12 -2 q-29 -28 -77 -47 q-3 2 -2 3 q47 38 59 66 q1 2 5 1 ZM160 39 q42 -5 66 -25 q15 -17 5 -30 q-19 -14 -29 5 q-2 8 -5 11 q-14 25 -38 35 q-1 2 1 4 Z" /><glyph glyph-name="" unicode="&#x4eba;" d="M134 185 q11 -143 116 -177 q3 -5 -1 -5 q-20 -2 -35 -17 q-3 -3 -4 -5 q-4 -3 -6 -2 q-69 43 -74 163 q-9 -142 -122 -162 q-4 1 -4 2 q-1 1 3 1 q107 48 89 217 q0 0 -1 1 q0 4 4 4 q33 -4 45 -6 q4 -4 0 -7 q-6 -6 -10 -7 Z" /><glyph glyph-name="" unicode="&#x4ec1;" d="M97 156 l92 0 q8 13 19 24 q1 0 3 0 q22 -15 30 -23 q2 -5 -1 -6 l-130 0 q-8 -1 -16 -1 l-6 7 q4 -1 9 -1 ZM84 7 l116 0 q13 19 18 23 q0 0 4 0 q18 -13 30 -23 q2 -4 -1 -6 l-154 0 q-9 0 -17 0 l-5 7 q4 -1 9 -1 ZM57 209 q21 -7 39 -14 q2 -2 0 -5 q-1 -1 -3 -2 q-5 -1 -5 -2 q-12 -20 -27 -45 q8 -1 13 -2 q1 -1 1 -3 q0 -2 0 -2 q-1 -2 -4 -4 q-1 -1 -1 -1 l0 -80 l2 -69 q-7 -6 -22 -7 q-10 1 -9 9 l2 106 l0 27 q-23 -33 -37 -42 q-2 -1 -3 -1 q-1 1 0 3 q35 54 50 130 q-1 5 4 4 Z" /><glyph glyph-name="" unicode="&#x4ec7;" d="M67 132 l0 -153 q-1 -7 -14 -10 q-15 -2 -16 5 l3 138 q-17 -25 -31 -40 q-3 -3 -5 -2 q-3 2 -1 6 q31 55 49 133 q0 1 6 2 q28 -9 37 -13 q4 -4 0 -7 q-4 -3 -8 -4 q-11 -19 -26 -43 q6 -2 10 -3 q2 -1 1 -4 q-1 -2 -5 -5 ZM205 132 l-5 -120 q-1 -9 13 -8 q19 -2 32 46 q2 2 4 -1 q-9 -33 -3 -42 q1 -2 2 -4 q5 -3 5 -5 q-3 -14 -26 -16 l-35 0 q-19 1 -19 13 l6 145 l-25 -4 q-6 -124 -72 -158 q-8 0 -4 7 q46 44 47 148 l-25 -3 l-11 -3 q-1 0 -1 0 q-6 2 -8 10 l18 0 l27 3 l0 53 q-1 6 -2 15 q1 3 3 4 q27 -1 36 -6 q8 -7 -7 -14 q0 -20 -1 -30 q0 -11 0 -19 l22 2 q6 10 8 13 q2 1 4 1 q9 -3 26 -15 q2 -3 0 -6 q-3 -3 -9 -6 Z" /><glyph glyph-name="" unicode="&#x4ecb;" d="M75 81 l0 24 l-1 13 q0 1 1 2 q1 -1 3 -1 q20 -2 29 -4 q2 -1 1 -4 q-3 -3 -6 -6 l0 -24 q3 -101 -88 -104 q-3 1 -3 2 q-1 1 2 1 q62 15 62 101 ZM147 -26 l0 143 q0 2 3 1 q16 -5 27 -10 q1 -1 0 -3 q-1 -1 -1 -1 q-4 -3 -3 -4 l3 -120 q-1 -6 -14 -9 q-15 -2 -15 3 ZM131 188 q-48 -76 -121 -104 q-2 -1 -2 0 q-1 2 1 3 q61 41 91 123 q1 5 5 4 q1 -1 4 -2 q22 -7 32 -11 q3 -2 0 -5 q-1 -1 -3 -1 q-4 -2 -5 -3 q39 -61 115 -72 q2 -3 0 -4 q-14 -6 -22 -24 q-3 -4 -4 -2 q-64 19 -91 98 Z" /><glyph glyph-name="" unicode="&#x4ece;" d="M45 161 l0 30 q0 2 -2 8 q0 5 0 7 q0 1 2 2 q25 -5 36 -9 q0 -3 0 -3 l-6 -5 l0 -24 q0 -47 -6 -73 q33 -11 45 -30 q5 -18 -9 -28 q-17 -7 -23 10 q-2 5 -1 13 q0 13 -13 29 q-12 -53 -61 -93 q-2 -1 -3 1 q-2 2 0 3 q24 29 32 61 q9 34 9 101 ZM213 -20 q-37 29 -50 134 q-2 -102 -106 -138 q-4 4 -2 6 q54 28 67 71 q16 46 9 155 q0 1 3 2 q18 -3 41 -9 q1 -2 0 -4 q-10 -6 -9 -7 q9 -148 86 -186 q1 -4 -1 -4 q-23 -2 -33 -20 q-1 1 -2 0 q-3 0 -3 0 Z" /><glyph glyph-name="" unicode="&#x4ed3;" d="M86 108 l63 0 q7 10 11 13 q22 -9 32 -17 q0 -2 -6 -7 q-2 -2 -2 -2 l0 -22 q4 -50 -38 -55 q-3 -2 -4 1 q-2 19 -32 29 q-3 2 1 6 q46 -12 44 21 l0 28 l-72 0 l0 -94 q0 -11 15 -11 l73 0 q27 0 36 7 q10 9 17 40 q5 3 7 -2 q-6 -36 2 -43 q0 0 2 -2 q4 -4 4 -9 q-1 -17 -47 -18 l-109 0 q-27 1 -27 26 l0 123 q-2 -2 -5 -4 q-16 -12 -42 -28 q-2 -2 -3 0 q-1 2 1 4 q58 45 91 121 q0 1 4 2 q22 -8 38 -14 q1 -2 0 -5 q-3 -2 -7 -3 q44 -60 119 -64 q0 -1 1 -6 q-22 -7 -25 -28 q-3 -3 -5 -1 q-62 34 -96 97 q-34 -42 -70 -70 q21 -7 29 -12 q0 -1 0 -1 Z" /><glyph glyph-name="" unicode="&#x4ed5;" d="M94 1 l50 0 l0 115 l-39 0 q-9 -1 -17 -1 l-5 7 q4 -1 9 -1 l52 0 l0 67 l-1 15 q-1 0 1 1 q14 -1 34 -7 q0 -2 0 -4 q-2 -4 -7 -5 l0 -67 l33 0 q0 0 0 1 q12 16 17 20 q0 1 3 0 q25 -15 29 -22 q1 -4 -2 -4 l-80 0 l0 -115 l30 0 q0 0 0 1 q12 16 17 20 q1 1 3 0 q25 -15 29 -22 q1 -1 -2 -2 l-140 0 q-2 0 -17 -1 l-5 5 q4 -1 8 -1 ZM72 127 l0 -16 l2 -126 q-1 -4 -15 -7 q-14 -2 -13 2 l2 131 l0 3 q-18 -24 -39 -41 q-3 0 -3 2 q35 53 55 130 q1 2 4 1 q13 -6 34 -16 q0 -2 0 -4 q-2 -1 -5 -3 q-5 -2 -6 -3 q-10 -21 -20 -38 q6 -3 11 -7 q1 -2 -1 -3 q-3 -4 -6 -5 Z" /><glyph glyph-name="" unicode="&#x4ed6;" d="M203 73 l0 68 l-29 -13 l0 -59 q29 -6 29 4 ZM74 90 l10 4 l15 6 l0 43 l-1 12 q0 0 0 0 q-1 0 1 1 q15 -3 29 -6 q1 -2 0 -4 q-1 -2 -4 -3 q-1 0 -1 0 l0 -32 l23 11 l1 34 l0 51 q2 -1 6 -1 q21 -3 26 -5 q1 -1 0 -4 q-1 -2 -4 -3 q-1 -1 -1 -1 l0 -58 l29 13 q3 7 4 11 q1 2 5 2 q1 -1 3 -2 q15 -6 24 -10 q2 -4 1 -5 q-2 -2 -5 -3 q-4 -3 -3 -4 l0 -68 q-1 -32 -31 -33 q-1 0 -4 1 q-2 17 -23 27 l0 -41 q-1 -8 -16 -11 q-14 -3 -14 5 l2 98 l-23 -10 l0 -88 q0 -13 12 -13 l70 0 q24 -1 37 43 q0 2 3 1 q2 0 2 -2 q-8 -30 -3 -36 q0 -2 2 -4 q6 -6 3 -14 q-9 -12 -41 -13 l-90 0 q-17 4 -19 21 l0 94 l-6 -3 q-1 0 -11 -5 l-8 4 ZM101 188 l-13 -5 q-11 -21 -23 -39 q6 -2 9 -3 q1 -1 1 -2 q0 -2 0 -2 q-1 -2 -5 -5 l0 -27 l2 -126 q-2 -6 -19 -7 q-13 0 -13 7 l3 126 l0 6 q-9 -13 -29 -36 q-5 -6 -7 -8 q-4 0 -4 3 q40 56 55 135 q0 2 3 2 q25 -6 39 -14 q0 -1 1 -5 Z" /><glyph glyph-name="" unicode="&#x4ed9;" d="M99 9 l0 142 q24 -2 34 -5 q2 -3 0 -6 q-2 -2 -7 -5 l0 -137 l31 0 l0 193 l-1 15 q0 0 2 1 q17 -2 29 -8 q1 -1 1 -4 q-2 -2 -4 -3 q-2 -1 -3 -1 l0 -193 l35 0 l0 139 l-1 16 q0 0 2 1 q17 -2 34 -7 q0 -3 0 -5 q-2 -2 -5 -3 q-2 -1 -3 -2 l0 -104 q0 -20 1 -48 q-1 -5 -15 -8 q-13 -3 -13 2 l0 14 l-91 0 q-4 -7 -9 -11 q-2 -1 -3 0 q-1 0 -1 0 q-14 8 -23 15 q-2 2 0 3 q5 5 10 9 ZM75 129 l0 -111 q0 -14 1 -35 q-1 -5 -14 -8 q-12 -3 -12 2 q0 2 0 10 q1 17 1 26 l0 99 q-19 -24 -44 -43 q-2 -1 -1 2 q41 55 58 134 q0 1 4 2 q18 -8 36 -17 q1 -2 0 -3 q-3 -2 -5 -3 q-5 -1 -5 -4 q-9 -18 -21 -36 q4 -3 8 -6 q1 -2 0 -4 q-1 -2 -5 -4 q-1 -1 -1 -1 Z" /><glyph glyph-name="" unicode="&#x4ee3;" d="M75 140 l0 -37 l2 -127 q-28 -12 -32 0 l3 127 l0 18 q-24 -29 -38 -42 q-5 -1 -4 3 q41 60 60 129 q-1 1 5 1 q4 -2 20 -10 q9 -4 14 -6 q2 -3 -1 -7 q-1 -1 -4 -1 q-6 -2 -7 -3 q-4 -8 -16 -26 q-4 -5 -5 -7 q5 -2 7 -3 q2 -1 1 -4 q-1 -2 -5 -5 ZM251 135 l-88 -17 q11 -93 61 -109 q13 10 22 37 q4 3 6 -2 q-8 -25 -8 -41 q0 -3 2 -8 q2 -6 2 -9 q-5 -14 -19 -12 q-83 26 -94 139 l-33 -6 q-7 -3 -13 -4 l-6 6 l11 1 l41 7 q-2 18 -2 36 l0 40 q0 2 -1 7 q-2 5 -1 8 q-2 1 2 2 q23 -2 38 -6 q1 -3 -1 -6 q-2 -3 -7 -6 l0 -63 q0 -3 0 -6 l42 8 q-1 -2 5 13 q3 8 5 11 q0 2 6 2 q3 -2 12 -7 q11 -6 18 -9 q3 -5 0 -6 ZM173 195 q36 6 47 -15 q3 -14 -8 -21 q-13 -5 -19 8 q-1 0 -1 1 q-9 18 -19 22 q-3 3 0 5 Z" /><glyph glyph-name="" unicode="&#x4ee4;" d="M128 190 q-47 -80 -119 -116 q-4 -1 -2 2 q60 50 88 136 q2 3 5 2 q19 -5 41 -13 q1 -2 0 -4 q-3 -2 -4 -2 q-2 -1 -6 -3 q40 -70 118 -78 q2 -1 0 -3 q-20 -9 -26 -27 q-1 -2 -4 -3 q-61 22 -91 109 ZM101 135 q34 -5 40 -27 q1 -15 -10 -20 q-14 -6 -21 5 q-2 3 -1 9 q2 15 -9 30 q-1 3 1 3 ZM124 23 l34 48 l-96 0 q-8 -1 -16 -1 l-6 7 q4 -1 9 -1 l108 0 q2 2 8 8 q0 0 2 0 q2 0 3 0 q19 -12 34 -21 q1 -2 0 -4 q-3 -1 -8 -2 q-5 0 -7 -1 l-60 -35 q18 -9 26 -21 q6 -15 -4 -27 q-11 -10 -22 -1 q-4 3 -8 14 q-15 29 -47 45 q-3 2 0 3 q30 -3 50 -11 Z" /><glyph glyph-name="" unicode="&#x4ee5;" d="M24 26 l0 146 l-1 15 q0 1 2 2 q17 -1 34 -8 q0 -2 0 -4 q-2 -2 -5 -3 q-2 -1 -3 -2 l0 -136 q21 9 101 51 q3 0 2 -5 q-20 -17 -56 -48 q-36 -31 -55 -46 q-5 -2 -7 -1 q-6 10 -20 27 q-2 2 0 6 q0 1 5 4 q2 1 3 2 ZM181 137 l0 46 q0 2 -2 7 q-2 7 0 10 q29 -2 39 -10 q0 -2 -5 -5 q-2 -2 -2 -2 l0 -46 q0 -64 -21 -98 q49 -9 52 -37 q1 -16 -15 -21 q-19 -3 -21 13 q-2 22 -20 38 q-31 -42 -123 -58 q-3 1 -5 3 q0 2 3 2 q124 23 120 158 ZM83 208 q43 -13 48 -40 q2 -18 -13 -24 q-19 -4 -22 13 q-1 4 -1 12 q2 18 -14 35 q-3 3 2 4 Z" /><glyph glyph-name="" unicode="&#x4eea;" d="M129 208 q36 -9 49 -27 q8 -17 -5 -30 q-17 -11 -26 4 q-2 2 -2 8 q0 5 0 8 q-2 17 -18 33 q-2 4 2 4 ZM113 188 q16 -91 50 -127 q23 46 34 139 q2 2 4 2 q18 -7 38 -17 q1 -3 0 -6 q-3 -1 -11 -4 q-18 -86 -49 -131 q27 -24 74 -35 q3 -4 0 -6 q-20 -6 -26 -28 q0 -1 -6 -1 q-35 15 -62 47 q-32 -32 -78 -49 q-3 1 -2 5 q47 28 69 60 q-34 53 -39 150 q1 2 4 1 ZM72 134 l0 -156 q-2 -8 -17 -10 q-10 -1 -10 8 l0 147 q-24 -32 -39 -48 q-4 0 -3 3 q37 58 53 134 q0 1 4 3 q18 -7 37 -17 q1 -3 0 -5 q-4 -2 -13 -6 q-11 -20 -21 -36 q9 -3 16 -9 q0 -1 0 -3 q-5 -5 -7 -5 Z" /><glyph glyph-name="" unicode="&#x4ef2;" d="M182 135 l0 -62 l31 0 l0 62 l-31 0 ZM151 73 l1 62 l-32 0 l0 -62 l31 0 ZM150 -24 l1 92 l-31 0 l0 -13 q-2 -10 -18 -13 q-12 0 -11 10 l2 77 l0 22 q10 -3 28 -11 l31 0 l0 24 l0 21 q-1 17 -2 25 q0 2 3 3 q16 -3 36 -11 q0 -1 0 -4 q-1 -2 -5 -4 q-3 -2 -3 -3 l0 -27 l1 -24 l26 0 q6 9 10 13 q0 0 3 0 q1 0 2 0 q20 -8 28 -17 q1 -1 0 -4 q-3 -3 -8 -5 l2 -70 q-4 -9 -21 -11 q-11 0 -11 11 l0 11 l-31 0 l1 -89 q-3 -8 -21 -11 q-12 -1 -12 8 ZM76 135 l-7 -5 l0 -145 q-1 -8 -15 -10 q-13 -1 -13 7 l1 130 q-16 -23 -34 -42 q-4 0 -4 4 q30 44 54 133 q0 1 6 2 q16 -6 33 -16 q1 -3 -1 -5 q-6 -3 -12 -6 q-9 -20 -21 -38 q8 -2 13 -5 q0 -1 0 -4 Z" /><glyph glyph-name="" unicode="&#x4ef6;" d="M124 132 l28 0 l0 61 l-1 15 q-1 0 1 1 q3 0 13 -2 q9 -2 21 -5 q0 -2 0 -4 q-2 -2 -7 -5 l0 -61 l17 0 q0 0 0 1 q12 16 17 20 q0 0 3 0 q25 -15 29 -22 q1 -4 -2 -4 l-64 0 l0 -59 l27 0 q2 2 7 9 q6 9 10 12 q2 0 4 0 q0 -1 2 -2 q24 -15 27 -20 q0 -4 -3 -4 l-74 0 l0 -39 q0 -12 0 -25 q1 -10 1 -15 q-13 -15 -29 -6 q-2 3 -1 16 q1 12 2 23 l0 46 l-50 0 q-8 -1 -16 -1 l-6 7 q4 -1 9 -1 l63 0 l0 59 l-30 0 q-14 -32 -30 -49 q-2 -1 -3 2 q14 40 18 101 q0 1 3 2 q5 -3 11 -5 q10 -4 20 -8 q1 -2 0 -4 q-1 -1 -3 -2 q-6 -3 -6 -6 q-4 -14 -8 -26 ZM69 132 l0 -110 q0 -6 0 -22 q1 -14 1 -18 q-13 -12 -26 -5 q-2 3 -1 13 q1 8 2 25 l0 100 q-19 -25 -38 -41 q-3 1 -2 2 q32 46 53 128 q1 3 5 2 q3 -2 8 -4 q16 -7 25 -11 q2 -3 -1 -5 q-4 0 -12 -6 q-7 -17 -16 -33 q8 -5 9 -6 q0 -1 0 -3 q0 -1 0 -1 q-2 -2 -5 -4 q-2 -1 -2 -1 Z" /><glyph glyph-name="" unicode="&#x4ef7;" d="M109 60 l0 61 q26 -1 34 -6 q3 -2 0 -5 q-2 -3 -7 -5 l0 -45 q3 -62 -64 -89 q-4 1 -2 5 q40 24 39 84 ZM62 132 l0 -153 q-2 -8 -17 -11 q-12 -1 -12 8 l2 129 l0 10 q-8 -13 -25 -35 q-2 -2 -3 -4 q-5 -2 -5 4 q29 48 43 130 q1 2 5 2 q7 -3 31 -13 q5 -2 8 -2 q1 -4 0 -5 q-3 -2 -13 -7 q-11 -21 -17 -30 q-3 -6 -6 -11 q9 -2 13 -3 q1 -1 1 -2 q0 -2 0 -2 q-1 -2 -5 -5 ZM164 192 q23 -57 87 -69 q1 -3 0 -5 q-19 -11 -24 -24 q-3 -3 -5 -2 q-15 10 -27 23 l0 -15 l0 -119 q-2 -10 -17 -12 q-12 0 -11 10 l1 121 l0 16 l-1 13 q0 0 1 1 q2 0 7 -1 q5 0 9 0 q-20 24 -27 60 l-2 -1 q-34 -59 -84 -97 q-4 0 -3 4 q39 44 57 115 q1 2 5 2 q24 -5 40 -11 q0 -1 1 -5 l-7 -4 Z" /><glyph glyph-name="" unicode="&#x4efb;" d="M243 174 l1 0 q-10 -2 -25 -4 q-13 -1 -40 -3 q0 -1 0 -2 q0 -1 0 -1 q-1 -2 -5 -5 l0 -70 l29 0 q7 13 18 24 q1 0 4 0 q18 -13 30 -23 q2 -5 -2 -6 l-79 0 l0 -94 l23 0 q8 12 19 22 q1 0 3 0 q22 -13 30 -22 q2 -3 -1 -5 l-140 0 q-2 0 -17 -1 l-5 7 q4 0 8 -1 l53 0 l0 94 l-45 0 q-8 -1 -16 -1 l-6 7 q4 -1 9 -1 l58 0 l0 76 q-35 -2 -65 -3 q-3 0 -1 3 q3 0 10 2 q75 17 114 37 q2 0 4 0 q4 -4 17 -13 q13 -10 18 -13 q1 -4 -1 -4 ZM72 129 l0 -145 q-18 -16 -29 -2 l2 87 l0 35 q-17 -28 -39 -43 q-3 0 -2 2 q38 55 47 142 q0 1 3 2 q14 -4 39 -14 q2 -3 -1 -5 q-1 -1 -3 -1 q-5 -2 -5 -3 q-8 -20 -18 -43 q3 -1 6 -2 q3 -1 5 -1 q1 -1 0 -3 q0 -1 0 -1 q0 -2 -4 -4 q-1 -1 -1 -1 Z" /><glyph glyph-name="" unicode="&#x4f0f;" d="M133 116 l-36 0 q-9 -1 -17 -1 l-5 7 q4 -1 9 -1 l49 0 q0 5 0 11 l0 59 q0 1 -2 6 q-2 6 0 9 q21 0 37 -9 q-1 -3 -5 -6 l0 -58 q0 -6 -1 -12 l36 0 q2 2 7 9 q6 9 10 12 q2 1 4 0 q0 -1 2 -2 q24 -15 27 -20 q-1 -4 -3 -4 l-82 0 q16 -83 81 -115 q3 -1 3 -1 q-1 -2 -4 -2 q-10 2 -25 -16 q-2 -2 -2 -3 q-48 35 -55 123 q-14 -95 -80 -116 q-9 -2 -1 2 q48 30 53 128 ZM178 185 q28 -3 36 -18 q1 -31 -27 -21 q-3 2 -5 16 q-1 18 -5 20 q-4 0 -4 2 q1 1 5 1 ZM67 129 l0 -144 q-10 -12 -28 -7 q-1 2 -1 9 q1 7 2 23 l0 97 q-16 -19 -29 -31 q-4 -3 -5 -3 q-2 0 1 4 q40 60 53 128 q0 6 7 3 q14 -7 28 -13 q5 -3 5 -4 q0 -2 -5 -4 q-2 -1 -3 -2 q-4 0 -4 -4 q-10 -22 -23 -41 q6 -2 7 -3 q0 -4 -5 -8 Z" /><glyph glyph-name="" unicode="&#x4f10;" d="M70 137 l0 -120 q0 -27 0 -38 q-10 -10 -27 -7 q-2 3 -1 13 q1 15 1 28 l0 108 q-17 -17 -31 -28 q-7 -5 -8 -3 q-1 1 4 7 q28 31 55 108 q0 4 1 4 q1 0 7 -2 q13 -7 30 -15 q5 -3 4 -4 q0 -2 -5 -4 q-4 -2 -6 -2 q-1 0 -2 -1 q0 -1 -1 -3 q-11 -15 -23 -30 q1 0 4 -1 q1 0 2 0 q1 -1 1 -3 q0 -2 0 -2 q-1 -2 -4 -4 q-1 -1 -1 -1 ZM127 114 l-37 -1 q-3 -8 -13 6 l49 2 q-3 24 -3 40 q-1 18 0 35 q-1 2 -1 5 q-1 3 -1 6 q-2 3 -1 4 q0 1 5 1 q5 0 22 -3 q5 0 8 0 q5 -1 5 -2 q0 -1 -2 -5 q-1 -2 -6 -6 l0 -24 q0 -28 3 -50 l48 2 q12 18 13 20 q3 6 9 1 q2 -2 23 -17 q3 -4 3 -6 q-1 -2 -4 -2 l-91 -4 q5 -31 13 -50 q15 22 21 39 q1 7 9 4 q9 -4 26 -13 q4 -2 4 -4 q0 -1 -4 -3 q-3 -1 -5 -2 q-3 0 -5 -5 q-15 -23 -34 -41 q19 -32 42 -34 q8 -2 19 35 q1 4 2 4 q2 -1 1 -5 q-9 -27 1 -43 q4 -7 5 -11 q0 -12 -16 -13 q-46 2 -77 47 q-34 -23 -71 -33 q-6 -1 -6 0 q0 1 5 4 q32 14 62 48 q-14 28 -21 74 ZM171 196 q30 -3 40 -18 q7 -30 -20 -25 q-6 2 -11 20 q-6 17 -11 20 q-4 1 -4 2 q1 0 6 1 Z" /><glyph glyph-name="" unicode="&#x4f17;" d="M182 90 q0 -2 1 -7 q14 -62 68 -83 q2 0 0 -2 q-20 -11 -25 -23 q-1 -1 -4 -2 q-40 26 -46 107 q0 5 0 7 q0 -2 0 -4 q0 -32 -6 -53 q-19 -58 -96 -59 q-3 1 -4 3 q0 3 3 3 q90 11 76 130 q0 2 0 3 q0 1 3 2 q22 -3 34 -7 q3 -2 1 -4 q-1 -2 -2 -3 q-5 -5 -3 -8 ZM79 58 q40 -8 48 -33 q3 -16 -7 -23 q-14 -6 -22 3 q-1 1 -2 7 q-1 26 -18 41 q-13 -64 -72 -86 q-4 -1 -5 1 q0 3 3 4 q33 17 43 67 q6 32 2 67 q-20 -6 -43 -8 q-3 0 -4 2 q0 2 3 3 q88 23 95 110 q0 3 3 3 q5 -2 19 -5 q13 -3 19 -4 q2 -2 0 -5 q-2 -1 -1 -1 q-5 -2 -5 -4 q23 -64 116 -70 q3 -1 1 -4 q-20 -13 -25 -27 q-1 -2 -4 -3 q-80 22 -92 99 q-13 -64 -72 -83 q22 -3 29 -5 q3 -3 1 -6 q-7 -6 -6 -9 q-1 -3 -2 -10 q-1 -13 -2 -21 Z" /><glyph glyph-name="" unicode="&#x4f18;" d="M193 0 l15 0 q24 0 29 41 q3 2 6 -1 q-5 -32 3 -40 q0 -1 1 -3 q3 -4 3 -7 q-2 -15 -29 -16 l-48 0 q-13 2 -13 16 l0 139 l-2 0 q-4 -105 -81 -156 q-2 -1 -4 1 q-2 2 0 3 q56 53 58 152 l-34 0 q-9 0 -17 0 l-5 7 q4 -1 9 -1 l47 0 q0 8 0 19 l0 39 q0 2 -3 9 q-2 6 0 8 q3 2 22 -3 q16 -3 17 -6 q0 -3 -5 -5 q-3 -2 -3 -3 l0 -40 q0 -9 0 -18 l42 0 q1 1 4 6 q9 11 13 14 q1 1 3 0 q21 -12 29 -21 q1 -4 -2 -5 l-67 0 q6 0 9 -3 q3 -2 0 -4 q-1 -3 -5 -5 q-1 -1 -1 -1 l0 -105 q-1 -11 9 -11 ZM172 197 q29 -1 40 -14 q8 -14 0 -24 q-12 -10 -21 2 q-2 1 -4 7 q-1 3 -1 5 q-3 9 -15 20 q-3 1 1 4 ZM67 137 l0 -155 q-2 -8 -17 -10 q-10 -1 -10 8 l0 136 q-15 -21 -34 -41 q-4 0 -3 3 q37 58 53 134 q0 1 4 3 q18 -7 37 -17 q1 -3 0 -5 q-4 -2 -13 -6 q-10 -19 -20 -35 q5 -3 10 -6 q1 -2 -1 -4 q-1 -2 -5 -4 q-1 -1 -1 -1 Z" /><glyph glyph-name="" unicode="&#x4f1a;" d="M62 103 l80 0 q2 2 8 9 q6 8 9 11 q2 1 4 0 q21 -13 29 -21 q0 -4 -3 -5 l-113 0 q-10 0 -17 0 l-5 7 q4 -1 8 -1 ZM145 200 l-6 -3 q38 -57 109 -64 q1 -1 1 -2 q0 -1 -1 -2 q-18 -17 -21 -30 q-2 -4 -4 -2 q-61 25 -87 99 q-49 -70 -129 -111 q-5 0 -3 4 q60 43 96 126 q-1 2 4 1 q3 -1 20 -5 q17 -5 21 -5 q2 -1 2 -3 q0 -3 -2 -3 ZM136 40 l-11 -1 l-48 -38 l102 0 q-14 21 -26 30 q-2 0 -1 2 q0 1 2 1 q54 -9 65 -41 q0 -16 -11 -22 q-15 -5 -20 7 q-1 3 -2 6 q-3 11 -5 14 l-135 -29 q-1 0 -2 0 q-3 0 -2 1 q-1 3 -6 15 q-5 13 -5 15 q-1 0 2 1 q30 5 61 54 l-53 0 q-9 -1 -17 -1 l-5 7 q4 -1 9 -1 l156 0 q9 13 18 24 q2 0 4 0 q18 -13 30 -23 q2 -5 -1 -6 l-118 0 q2 -2 6 -4 q11 -4 14 -6 q1 -3 -1 -5 Z" /><glyph glyph-name="" unicode="&#x4f20;" d="M70 135 l0 -16 l0 -142 q-3 -9 -18 -10 q-10 1 -10 11 l1 118 l0 26 q-22 -26 -36 -40 q-2 -2 -3 0 q-2 2 0 4 q39 52 54 126 q1 2 5 2 q18 -5 37 -14 q1 -3 -1 -4 q-2 -2 -6 -3 q-5 -2 -6 -3 q-12 -23 -25 -43 q1 -1 1 -1 q12 -5 12 -6 q-1 -2 -5 -5 ZM189 63 l-39 0 q-3 -6 -12 -12 q-2 -2 -4 1 q-5 2 -24 18 q-2 1 0 5 l13 7 q1 9 3 15 q1 3 2 6 l-28 0 q-2 -1 -17 -1 l-5 7 q4 -1 8 -1 l43 0 q3 20 8 40 l-29 0 q-2 -1 -17 -1 l-5 7 q4 -1 8 -1 l44 0 q2 16 5 30 q3 17 4 25 q0 1 2 2 q2 -1 7 -2 q19 -4 28 -6 q0 -2 0 -4 l-8 -5 l-8 -40 l27 0 q1 3 10 13 q3 4 5 6 q0 0 3 0 q16 -9 26 -20 q2 -4 -2 -4 l-71 0 l-8 -40 l46 0 q0 0 0 1 q12 16 17 20 q0 0 3 0 q25 -15 29 -22 q1 -4 -2 -4 l-94 0 l-8 -35 l39 0 q2 2 6 8 q2 4 4 6 q4 0 5 0 q18 -10 35 -22 q0 -1 -1 -5 q-28 -5 -57 -41 q15 -7 22 -14 q11 -13 1 -26 q-13 -12 -26 0 q-1 1 -3 5 q-5 8 -9 12 q-17 19 -43 34 q-3 3 1 5 q29 -5 49 -13 q6 16 17 46 Z" /><glyph glyph-name="" unicode="&#x4f24;" d="M161 92 l31 0 q1 1 5 6 q3 4 5 6 q2 1 4 1 q5 -2 28 -19 q1 -2 0 -4 q-8 -3 -7 -3 l0 -24 q-1 -86 -53 -90 q-1 1 -4 2 q-5 22 -26 31 q1 2 2 2 q36 -7 44 8 q7 26 10 60 l0 19 l-39 0 q-10 -87 -87 -116 q-3 2 -2 4 q56 36 60 112 l-27 0 l-17 0 l-5 7 q2 -1 11 -2 l39 0 q0 12 0 27 l0 10 q0 2 -1 7 q-2 7 0 10 q0 1 1 2 q22 -3 36 -9 q1 -2 1 -3 q0 -3 -4 -5 q-3 -1 -3 -2 l0 -10 q-1 -14 -2 -27 ZM64 132 l0 -150 q-1 -7 -14 -10 q-12 -2 -13 4 q-1 7 0 23 q0 9 1 23 l0 98 q-19 -29 -32 -40 q-3 0 -2 4 q35 54 46 129 q0 1 4 2 q15 -5 34 -12 q1 -3 -1 -4 q-4 -3 -3 -2 q-6 -4 -7 -5 q-10 -23 -23 -47 q7 -2 15 -4 q2 -2 1 -4 q-1 -3 -5 -5 q-1 0 -1 0 ZM130 159 l70 0 q9 12 13 15 q1 1 3 1 q12 -10 18 -18 q-1 -3 -2 -3 l-106 0 q-18 -27 -50 -53 q-4 2 -3 3 q34 46 47 104 q0 2 4 1 q23 -9 35 -15 q-1 -4 -1 -4 q-3 -1 -12 -5 q-8 -15 -16 -26 Z" /><glyph glyph-name="" unicode="&#x4f34;" d="M144 7 l0 45 l-47 0 q-9 -1 -17 -1 l-5 7 q4 -1 9 -1 l60 0 l0 46 l-42 0 q-8 -1 -16 -1 l-6 7 q4 -1 9 -1 l55 0 l0 101 q-5 0 20 -3 q9 -1 15 -2 q-1 -2 -5 -6 q-3 -4 -3 -5 l0 -85 l27 0 q2 2 7 9 q6 9 10 12 q2 0 4 0 q0 -1 2 -2 q24 -15 27 -20 q0 -4 -3 -4 l-74 0 l0 -46 l33 0 q0 0 0 1 q12 16 17 20 q0 1 3 0 q25 -15 29 -22 q1 -4 -2 -4 l-80 0 l0 -33 q0 -29 0 -37 q-9 -8 -28 -7 q-2 2 -1 10 q1 7 2 22 ZM58 149 l11 -4 q-1 -5 -5 -8 l0 -153 q-6 -11 -27 -9 q-2 -1 -1 37 q1 32 1 51 l0 52 q-15 -23 -30 -38 q-2 -1 -3 2 q29 52 41 128 q1 2 4 2 q12 -4 37 -16 q0 -2 0 -4 q-3 -1 -4 -2 q-8 -3 -8 -5 q-8 -17 -16 -33 ZM93 182 q-3 2 -2 2 q0 1 3 1 q30 -9 38 -32 q3 -21 -8 -28 q-16 -6 -22 12 q-1 3 0 12 q3 21 -9 33 ZM211 187 q11 -5 27 -14 q2 -2 2 -3 q0 -1 -2 -2 q-1 -1 -3 -2 q-2 -1 -3 -2 q-31 -36 -48 -49 q-4 -3 -2 1 q13 34 22 69 q1 4 7 2 Z" /><glyph glyph-name="" unicode="&#x4f3c;" d="M93 23 l0 149 l-1 13 q0 0 1 1 q4 -1 8 -1 q18 -1 25 -3 q1 -2 0 -4 q-1 -3 -6 -6 l0 -141 q41 24 53 31 q1 0 3 -1 q1 -2 0 -3 q-14 -15 -40 -40 q-26 -24 -35 -35 q-4 -1 -5 0 q-6 10 -16 29 q-1 1 0 2 q1 1 2 2 q0 1 5 3 q5 2 6 4 ZM59 124 l0 -145 q-1 -7 -16 -9 q-14 -1 -14 6 l3 132 l0 8 q-4 -4 -10 -12 q-8 -10 -12 -14 q-5 -1 -4 3 q36 52 47 117 q0 2 3 2 q16 -4 36 -13 q1 -4 0 -5 q-2 -2 -6 -3 q-4 -2 -5 -3 q-15 -27 -32 -51 q13 -5 15 -7 q0 -2 -4 -5 q-1 -1 -1 -1 ZM133 205 q39 -13 44 -39 q0 -17 -14 -21 q-17 -2 -19 13 q-1 3 0 9 q4 18 -13 35 q-1 3 2 3 ZM197 111 l0 77 q0 1 -1 6 q0 7 0 10 q-1 1 1 1 q24 -1 38 -9 q1 -2 0 -4 q-1 -2 -6 -3 q-3 -1 -2 -1 l0 -75 q0 -54 -19 -86 q34 -7 44 -29 q2 -15 -11 -21 q-15 -4 -19 10 q-1 3 -2 8 q-1 15 -16 27 q-24 -37 -85 -54 q-3 0 -4 2 q-1 2 2 2 q83 33 80 139 Z" /><glyph glyph-name="" unicode="&#x4f4d;" d="M92 145 l105 0 q8 13 19 24 q1 0 3 0 q22 -15 30 -23 q2 -5 -1 -6 l-143 0 q-11 0 -17 -1 l-5 7 q1 0 4 -1 q3 -1 5 0 ZM212 108 l-36 -121 l28 0 q10 13 17 19 q0 1 3 0 q26 -13 29 -20 q1 -3 -2 -4 l-151 0 q-2 0 -17 -1 l-5 7 q4 0 8 -1 l77 0 q1 12 3 21 q12 72 15 118 q0 4 4 4 q15 -3 37 -9 q2 -1 0 -5 q-9 -3 -10 -8 ZM67 129 l0 -75 q0 -31 1 -75 q-1 -5 -16 -7 q-13 -2 -13 3 q0 48 1 77 l0 66 q-16 -18 -32 -31 q-2 1 -1 2 q34 47 54 125 q2 0 3 1 q18 -9 36 -19 q1 -2 0 -3 q-2 -1 -5 -2 q-5 -1 -6 -3 q-11 -23 -29 -46 q12 -5 12 -7 q-1 -2 -4 -5 q-1 -1 -1 -1 ZM104 118 q40 -32 43 -78 q-1 -19 -14 -25 q-15 -4 -18 13 q-1 4 -1 18 q3 44 -12 70 q-1 2 2 2 ZM124 207 q43 -6 50 -29 q2 -15 -11 -24 q-14 -7 -20 6 q-3 3 -4 13 q-2 21 -16 31 q-3 1 1 3 Z" /><glyph glyph-name="" unicode="&#x4f50;" d="M126 148 l-29 0 q-9 -1 -17 -1 l-5 7 q4 -1 9 -1 l43 0 q6 27 6 51 q0 2 3 3 q0 -1 2 -1 q24 -5 35 -8 q1 0 1 -3 q-4 -3 -3 -2 q-6 -4 -7 -5 q-3 -19 -7 -35 l41 0 q2 2 7 9 q6 9 10 12 q2 1 4 0 q0 -1 2 -2 q24 -15 27 -20 q-1 -4 -3 -4 l-89 0 q-11 -36 -32 -64 l65 0 q11 14 16 18 q0 1 3 0 q16 -8 26 -19 q2 -4 -2 -4 l-47 0 q-1 -5 -6 -8 l0 -76 l25 0 q1 2 4 5 q9 11 13 14 q0 1 3 0 q26 -14 29 -20 q1 -3 -2 -4 l-151 0 q-2 0 -17 -1 l-5 7 q4 0 8 -1 l63 0 l0 84 l-29 0 q-18 -23 -42 -38 q-3 -1 -2 3 q31 28 50 104 ZM67 132 l0 -146 q-1 -5 -13 -8 q-14 -3 -15 1 q0 5 0 21 q1 11 1 14 l0 97 q-16 -19 -35 -32 q-2 -1 -1 2 q35 41 49 127 q0 2 5 1 q0 -1 3 -2 q20 -9 30 -14 q2 -2 0 -4 q-2 -1 -3 -2 q-5 -1 -5 -3 q-11 -24 -20 -39 q6 -2 12 -4 q0 -2 0 -4 q-2 -2 -5 -3 q-2 -1 -3 -2 Z" /><glyph glyph-name="" unicode="&#x4f55;" d="M115 124 l0 -72 l29 0 l0 75 l-24 0 q-2 -2 -5 -3 ZM91 33 l2 91 q1 6 -1 17 q0 1 3 1 q19 -5 24 -10 l20 0 q7 10 10 11 q1 0 4 0 q11 -5 21 -12 q1 -2 1 -3 q-1 -1 0 -1 q0 -2 -5 -4 q-2 -2 -2 -2 l0 -82 q-4 -6 -16 -7 q-8 1 -8 9 l0 6 l-29 0 l0 -11 q-1 -7 -13 -9 q-11 -1 -11 6 ZM192 11 l0 161 l-76 0 q-2 -1 -17 -1 l-5 7 q4 -1 8 -1 l99 0 q0 0 0 1 q12 16 17 20 q1 1 3 0 q25 -15 29 -22 q1 -4 -2 -4 l-24 0 q0 -2 -3 -7 q-2 -3 -2 -4 l0 -24 l3 -142 q0 -18 -35 -23 q-4 1 -4 2 q-3 21 -34 27 q-3 0 -3 2 q1 2 4 3 q41 -6 42 5 ZM70 127 l0 -143 q-2 -7 -17 -9 q-13 0 -13 7 l3 125 l0 5 q-17 -20 -37 -40 q-4 -1 -3 3 q44 65 55 129 q1 2 5 2 q12 -3 35 -12 q0 -1 0 -4 q-2 -2 -10 -5 q-12 -24 -25 -45 q9 -2 14 -5 q1 -2 -1 -5 q-1 -1 -3 -2 q-3 -1 -3 -1 Z" /><glyph glyph-name="" unicode="&#x4f59;" d="M107 1 l0 67 l-53 0 q-8 -1 -16 -1 l-6 7 q4 -1 9 -1 l66 0 l0 30 q-1 0 -1 1 q-1 1 -1 4 l-11 0 q-8 -1 -16 -1 l-6 7 q4 -1 9 -1 l55 0 q4 6 13 16 q2 0 3 0 q12 -10 18 -18 q0 -4 -2 -3 l-29 0 q-1 -2 -3 -3 q-4 -3 -3 -5 l0 -27 l30 0 q1 3 10 13 q3 4 5 6 q0 0 3 0 q16 -9 26 -20 q2 -4 -2 -4 l-72 0 l0 -55 q-1 -3 0 -11 q2 -10 2 -15 q-4 -10 -31 -14 q-2 0 -4 3 q-12 19 -32 24 q-2 0 1 1 q27 -3 38 0 ZM62 60 q5 -3 19 -12 q5 -4 11 -7 q1 -2 0 -4 q-2 -1 -5 -1 q-6 -1 -7 -2 q-30 -29 -72 -43 q-4 1 -2 3 q28 18 53 65 q0 2 3 1 ZM153 48 q47 -6 59 -29 q7 -17 -2 -26 q-12 -11 -22 0 q-4 5 -8 14 q-10 27 -27 38 q-3 1 0 3 ZM141 199 l-7 -3 q32 -67 112 -82 q1 -1 1 -2 q0 -1 -1 -1 q-19 -5 -25 -24 q-3 -4 -5 -2 q-64 28 -85 109 q-50 -80 -122 -118 q-3 0 -2 2 q56 46 88 132 q0 1 4 2 q7 -2 24 -5 q11 -2 18 -3 q0 -1 0 -5 Z" /><glyph glyph-name="" unicode="&#x4f5c;" d="M129 140 l71 0 q9 13 18 24 q2 0 4 0 q18 -13 30 -23 q2 -5 -1 -6 l-87 0 q1 -1 1 -1 q0 -2 -4 -4 q-1 -1 -1 -1 l0 -48 l33 0 q0 0 0 1 q12 16 17 20 q1 1 3 0 q25 -15 29 -22 q1 -4 -2 -4 l-80 0 l0 -56 l48 0 q4 6 15 18 q2 1 4 0 q17 -9 25 -19 q2 -4 -1 -4 l-91 0 q0 -11 0 -27 q1 -6 1 -8 q-1 -5 -14 -8 q-15 -1 -15 3 q0 4 0 15 q1 13 1 22 l0 117 q0 4 -1 6 l-8 0 q-22 -25 -46 -40 q-3 1 -2 2 q38 44 60 113 q1 2 4 2 q15 -7 37 -17 q1 -2 -1 -3 q-3 -2 -7 -3 q-5 -2 -6 -3 q-14 -23 -34 -46 ZM64 129 l0 -107 q0 -11 0 -23 q1 -12 1 -19 q-1 -6 -14 -9 q-15 -2 -15 3 q0 3 0 12 q0 11 1 32 l0 104 q-16 -15 -32 -27 q-2 -1 -1 2 q35 46 57 113 q0 1 4 2 q3 -2 7 -4 q18 -9 26 -13 q3 -4 0 -5 q-8 -2 -11 -6 q-14 -22 -32 -43 q9 -1 13 -2 q2 -1 1 -5 q0 -2 -4 -4 q-1 -1 -1 -1 Z" /><glyph glyph-name="" unicode="&#x4f60;" d="M150 9 l0 123 q22 -2 31 -6 q1 -1 1 -3 q0 -1 0 -1 q-2 -3 -6 -3 l0 -97 l1 -32 q-2 -20 -32 -23 q-3 2 -4 4 q-2 20 -32 26 q-3 3 1 5 q41 -2 40 7 ZM70 137 l0 -161 q-1 -4 -15 -7 q-12 -2 -13 2 q-1 5 0 20 q0 9 1 26 l0 101 q-18 -24 -39 -39 q-2 -1 -3 0 q0 1 1 3 q33 41 54 131 q0 1 4 1 q16 -7 32 -17 q2 -4 1 -4 q-2 -2 -5 -4 q-3 -2 -4 -3 q-4 -7 -7 -13 q-3 -7 -13 -24 q6 -2 10 -2 q1 -1 1 -3 q0 -2 0 -2 q-1 -2 -4 -4 q-1 -1 -1 -1 ZM208 140 l-83 0 q-24 -35 -44 -50 q-4 -1 -2 2 q29 45 41 121 q1 2 5 1 q10 -4 37 -15 q2 -2 0 -4 q-4 -3 -13 -7 q-9 -23 -21 -43 l77 0 q5 8 8 12 q0 2 4 1 q16 -11 34 -24 q2 -4 -2 -7 q-19 0 -28 -6 q-7 -4 -20 -15 q-2 -1 -3 -2 q-2 -2 -3 -1 q0 1 0 3 q3 9 13 34 ZM113 102 q13 -5 30 -13 q1 -2 0 -3 q-3 -2 -7 -5 q-24 -47 -57 -73 q-4 -3 -2 2 q23 38 32 91 q-1 2 4 1 ZM188 94 q52 -21 59 -51 q3 -17 -8 -27 q-17 -10 -23 3 q-3 6 -5 19 q-2 30 -25 54 q-2 2 2 2 Z" /><glyph glyph-name="" unicode="&#x4f69;" d="M168 36 l0 64 l-11 0 l0 -69 q0 0 1 0 q9 -2 10 5 ZM187 94 l0 -72 q-2 -9 -15 -10 q-1 0 -1 1 q-3 10 -14 16 l0 -42 q-9 -13 -17 -5 q-1 4 0 18 q1 10 1 15 l0 85 l-13 0 l0 -80 q-12 -11 -19 -2 l0 93 q0 1 3 2 q11 -5 16 -8 l13 0 l0 40 l-7 0 q-8 -1 -16 -1 l-6 7 q4 -1 9 -1 l39 0 q6 8 11 14 q1 1 3 0 q8 -6 17 -15 q2 -4 -2 -4 l-25 0 q-3 -5 -7 -8 l0 -32 l8 0 q0 1 2 3 q2 2 3 4 q1 1 3 1 q0 0 1 0 q8 -5 15 -10 q2 -2 1 -3 q-3 -4 -3 -6 ZM7 86 q19 46 28 121 q0 1 4 2 q4 -3 10 -5 q12 -5 23 -11 q3 -3 0 -6 q-5 -1 -7 -7 q-8 -16 -15 -29 q8 -4 13 -8 q1 -2 -1 -4 q-1 -2 -5 -4 q-1 -1 -1 -1 l0 -151 q-10 -13 -25 -7 q-1 3 0 13 q1 13 1 25 l0 105 q-1 -2 -3 -5 q-9 -15 -20 -29 q-3 -1 -2 1 ZM104 185 l0 -125 q-1 -47 -39 -75 q-3 -1 -2 1 q16 26 18 68 l0 64 q0 28 -1 47 q-1 20 -2 34 q0 2 2 2 q8 -3 24 -11 l83 0 q4 5 10 13 q2 1 4 1 q13 -7 22 -14 q0 -1 0 -2 q0 -2 0 -2 q-8 -7 -7 -9 l0 -48 q0 -102 22 -112 q4 3 11 27 q2 1 3 0 q-9 -32 0 -49 q1 -3 2 -5 q-1 -15 -14 -14 q-49 12 -48 153 l0 56 l-88 0 Z" /><glyph glyph-name="" unicode="&#x4f73;" d="M139 103 l0 45 l-31 0 q-2 -1 -17 -1 l-5 7 q4 -1 8 -1 l45 0 l0 40 l-1 13 q0 1 1 2 q1 -1 3 -1 q20 -2 29 -4 q2 -1 1 -4 q-3 -3 -6 -6 l0 -40 l24 0 q2 2 7 9 q6 9 10 12 q2 1 4 0 q0 -1 2 -2 q24 -15 27 -20 q-1 -4 -3 -4 l-71 0 l0 -45 l35 0 q1 1 4 6 q9 11 13 14 q1 1 3 0 q21 -12 29 -21 q1 -4 -2 -5 l-148 0 q-10 0 -17 0 l-5 7 q4 -1 8 -1 l53 0 ZM139 -8 l0 49 l-31 0 q-10 0 -17 0 l-5 7 q4 -1 8 -1 l45 0 l0 34 l-1 13 q0 1 1 2 q1 -1 3 -1 q20 -2 29 -4 q2 -1 1 -4 q-3 -3 -6 -6 l0 -34 l29 0 q1 1 7 9 q6 7 8 9 q-1 0 3 0 q15 -8 26 -19 q2 -4 -2 -5 l-71 0 l0 -49 l38 0 q10 13 17 19 q0 1 3 0 q23 -11 29 -20 q1 -3 -2 -4 l-151 0 q-2 0 -17 -1 l-5 7 q4 0 8 -1 l53 0 ZM70 137 l0 -115 q0 -22 0 -39 q-14 -14 -28 -6 q-2 4 -1 15 q1 8 2 25 l0 102 q-17 -19 -34 -35 q-3 0 -2 2 q37 54 54 122 q0 2 4 1 q22 -10 32 -16 q1 -2 -1 -4 q-2 -2 -4 -2 q-4 -1 -5 -5 q-9 -18 -21 -34 q6 -3 9 -5 q-1 -2 -4 -5 q-1 -1 -1 -1 Z" /><glyph glyph-name="" unicode="&#x4f7f;" d="M171 129 l0 -42 l34 0 l0 42 l-34 0 ZM144 87 l0 42 l-29 0 l0 -42 l29 0 ZM226 -23 l0 -1 q-38 4 -77 33 q-25 -25 -75 -33 q-4 1 -1 2 q43 13 60 46 q-17 17 -26 38 q-2 1 2 1 q13 -16 29 -26 q6 17 6 43 l0 1 l-29 0 l0 -2 q-1 -6 -13 -9 q-13 -1 -13 4 q1 40 2 58 l0 13 q13 -4 24 -10 l29 0 l0 32 l-47 0 q-9 -1 -17 -1 l-5 7 q4 -1 9 -1 l60 0 l0 13 l-2 29 q0 0 2 1 q18 -4 34 -10 q0 -1 0 -3 q-1 -2 -5 -5 q-2 -1 -2 -1 l0 -24 l34 0 q11 14 16 18 q0 1 3 0 q16 -8 26 -19 q2 -4 -2 -4 l-77 0 l0 -32 l29 0 q1 0 5 4 q3 4 5 5 q1 2 5 1 q8 -4 21 -12 q2 -2 1 -4 q-1 -1 -2 -2 q-2 -3 -3 -3 l3 -42 q-1 -6 -14 -9 q-15 -3 -16 3 l0 5 l-34 0 l0 -2 q0 -33 -12 -54 q37 -20 90 -18 q1 -2 0 -3 q-16 -4 -20 -24 q-1 -4 -3 -3 ZM62 132 l0 -156 q-1 -5 -14 -8 q-15 -1 -15 3 q1 105 2 134 l0 9 q-14 -18 -29 -33 q-3 -1 -2 3 q33 58 41 125 q0 2 4 3 q23 -9 35 -14 q1 -4 -1 -5 q-2 -1 -3 -2 q-4 0 -5 -4 q-8 -22 -21 -43 q1 -1 3 -2 q5 -2 7 -3 q2 -2 0 -4 q-1 -1 -2 -3 Z" /><glyph glyph-name="" unicode="&#x4f8d;" d="M149 113 l0 43 l-39 0 q-8 -1 -16 -1 l-6 7 q4 -1 9 -1 l52 0 l0 19 l-1 27 q1 1 2 2 q18 -2 33 -9 q0 -4 0 -4 q-2 -2 -7 -5 l0 -30 l24 0 q4 7 15 18 q2 1 4 0 q13 -9 22 -19 q1 -3 -1 -4 l-64 0 l0 -43 l37 0 q6 9 16 18 q0 1 3 0 q12 -7 22 -19 q2 -3 -1 -4 l-151 0 q-8 -1 -16 -1 l-6 7 q4 -1 9 -1 l60 0 ZM182 5 l0 58 l-74 0 q-2 -1 -17 -1 l-5 7 q4 -1 8 -1 l88 0 l0 21 q-1 3 -1 6 q-1 4 -1 8 q0 2 3 3 q3 -1 7 -2 q18 -3 23 -5 q2 -2 1 -4 q-1 -1 -3 -3 q-7 -5 -5 -8 l0 -16 l5 0 q4 6 15 18 q0 1 3 0 q15 -7 26 -19 q2 -4 -2 -4 l-47 0 l2 -69 q-5 -20 -35 -24 q-3 0 -5 3 q-8 22 -24 25 q-3 2 1 4 q25 -4 37 3 ZM67 133 l0 -12 q0 -91 0 -142 q-1 -6 -14 -10 q-14 -2 -14 4 l1 113 l0 34 q-14 -17 -30 -33 q-3 1 -3 2 q33 52 54 121 q0 1 3 2 q12 -4 37 -19 q1 -4 0 -4 q-3 -2 -10 -4 q-3 -1 -4 -1 q-11 -18 -25 -38 q9 -3 10 -3 q3 -2 2 -4 q-4 -5 -7 -6 ZM114 55 q38 -6 41 -30 q0 -13 -12 -18 q-11 -4 -17 7 q-2 2 -2 9 q0 4 0 7 q0 13 -11 21 q-2 2 1 4 Z" /><glyph glyph-name="" unicode="&#x4fa0;" d="M157 76 l-1 0 q-1 -67 -90 -107 q-5 3 -1 6 q60 38 65 101 l-41 0 q-9 -1 -17 -1 l-5 7 q4 -1 9 -1 l54 0 q1 8 1 24 l0 56 l-31 0 q-10 0 -17 0 l-5 7 q4 -1 8 -1 l45 0 l0 32 l-2 14 q0 1 1 2 q8 -1 34 -7 q0 -1 1 -4 q-2 -4 -7 -5 l0 -32 l32 0 q2 2 8 9 q6 8 9 11 q2 1 4 0 q21 -13 29 -21 q0 -4 -3 -5 l-79 0 l0 -56 q0 -5 -1 -12 q-1 -8 0 -12 l9 0 q11 33 15 70 q1 2 5 3 q22 -8 31 -14 q1 -2 0 -5 q-2 -1 -10 -6 q-3 -5 -8 -13 q-17 -25 -25 -35 l30 0 q0 0 0 1 q12 16 17 20 q0 1 3 0 q25 -15 29 -22 q1 -4 -2 -4 l-87 0 q25 -64 86 -70 q2 -3 1 -6 q-20 -1 -27 -21 q-1 1 -3 -1 q-2 -1 -2 -1 q-54 32 -62 99 ZM59 140 l0 -161 q-2 -7 -15 -10 q-11 -1 -10 7 l1 127 l0 18 q-5 -6 -9 -11 q-12 -18 -19 -26 q-2 -3 -4 -2 q-2 2 0 5 q31 57 44 125 q0 1 5 2 q14 -5 34 -15 q1 -3 -1 -5 q-8 -4 -12 -6 q-8 -17 -17 -33 q6 -3 9 -6 q1 -2 0 -4 q-1 -2 -5 -4 q-1 -1 -1 -1 ZM81 150 q37 -16 40 -40 q0 -18 -14 -22 q-16 -2 -17 15 q-1 2 0 12 q2 15 -11 32 q-2 0 -1 1 q1 1 3 2 Z" /><glyph glyph-name="" unicode="&#x4fa7;" d="M144 47 l0 138 l-38 0 q-2 -2 -5 -2 l0 -134 q-16 -19 -23 -2 l2 122 l0 16 l-2 15 q0 1 1 2 q15 -4 30 -11 l30 0 q1 2 8 9 q1 1 3 1 q10 -5 24 -15 q1 -1 0 -3 l-6 -4 l2 -132 q-21 -17 -26 0 ZM184 33 l0 126 l-1 15 q-1 0 1 1 q15 -2 27 -6 q0 -3 0 -3 q-1 -2 -5 -5 q-1 0 -1 0 l0 -16 l2 -112 q-16 -15 -23 0 ZM219 11 l0 198 q8 -1 18 -2 q9 -2 12 -3 q1 -2 0 -5 q-4 -4 -6 -6 l0 -26 l2 -165 q1 -26 -28 -30 q-3 0 -4 2 q-2 22 -24 26 q-4 3 1 5 q30 -6 29 6 ZM72 192 l-10 -4 q-2 -7 -8 -19 q-2 -5 -4 -10 q2 -1 8 -3 q3 -1 4 -1 q0 -1 0 -4 q-1 -1 -6 -3 l0 -166 q-2 -8 -16 -10 q-10 -1 -9 8 l1 145 q-11 -19 -25 -40 q-2 -2 -4 0 q-2 1 0 3 q25 50 35 121 q3 1 5 2 q16 -7 29 -15 q2 -2 0 -4 ZM112 78 l0 91 q16 -1 27 -5 q1 -2 1 -3 q-2 -4 -7 -5 l0 -78 q0 -25 -5 -43 q38 -9 47 -27 q5 -12 -6 -20 q-13 -6 -20 6 q-2 5 -3 10 q-2 13 -20 27 q-13 -33 -59 -55 q-4 1 -2 5 q49 24 47 97 Z" /><glyph glyph-name="" unicode="&#x4faf;" d="M189 151 l19 0 q1 2 8 9 q5 6 7 9 q2 0 4 0 q15 -12 22 -20 q1 -3 -1 -4 l-154 0 q-8 0 -16 0 l-6 7 q4 -1 9 -1 l82 0 l3 37 l-52 0 l-9 -1 l-6 7 l12 -1 l49 0 l11 14 q1 1 4 0 q16 -6 27 -10 q1 -3 -1 -4 q-3 -4 -6 -5 q-2 -7 -4 -23 q-2 -10 -2 -14 ZM219 -25 q-50 25 -54 85 l-4 0 q-8 -69 -85 -85 q-2 1 -3 2 q-1 1 1 1 q51 19 60 82 l-37 0 q-9 -1 -17 -1 l-5 7 q4 -1 9 -1 l51 0 q0 5 0 13 q1 6 1 19 l0 8 l-22 0 q-2 -2 -4 -5 q-16 -21 -25 -27 q-2 -1 -2 2 q14 24 21 66 q0 0 2 2 q1 -1 3 -1 q20 -5 26 -7 q1 -1 1 -4 q-6 -3 -7 -4 q-2 -2 -4 -6 q-4 -7 -7 -10 l58 0 q1 1 7 9 q6 7 8 9 q0 0 2 0 q1 0 2 0 q18 -11 25 -19 q2 -5 -1 -5 l-47 0 q0 -3 -7 -6 q0 -19 -3 -34 l36 0 q2 2 7 9 q6 9 10 12 q2 1 4 0 q0 -1 2 -2 q24 -15 27 -20 q-1 -4 -3 -4 l-76 0 q17 -50 80 -57 q1 -2 0 -3 q-21 -7 -27 -24 q-2 -2 -3 -1 ZM64 135 l0 -156 q-2 -6 -15 -8 q-12 -1 -11 5 l2 143 l0 1 q-14 -25 -32 -44 q-3 0 -3 3 q25 52 38 129 q0 1 4 2 q19 -5 38 -14 q2 -2 0 -5 q-3 -3 -10 -5 q-7 -16 -17 -35 q8 -4 13 -8 q0 -1 0 -3 q-5 -5 -7 -5 Z" /><glyph glyph-name="" unicode="&#x4fbf;" d="M171 143 l0 -32 l29 0 l0 32 l-29 0 ZM144 111 l0 32 l-26 0 l0 -32 l26 0 ZM144 73 l0 32 l-26 0 l0 -32 l26 0 ZM170 73 l30 0 l0 32 l-29 0 l0 -18 q0 -7 -1 -14 ZM144 68 l-26 0 q-1 -4 -11 -7 q-14 -3 -18 0 q-1 0 0 4 q1 11 2 24 l0 72 q15 -3 30 -12 q0 -1 -1 -1 l24 0 l0 29 l-36 0 q-10 0 -17 0 l-5 7 q3 -2 13 -1 l105 0 q1 1 4 6 q9 11 13 14 q0 1 3 0 q21 -12 29 -21 q1 -4 -2 -5 l-76 0 q-1 -1 -2 -3 q-3 -3 -2 -5 l0 -21 l24 0 q7 12 12 13 q21 -9 28 -16 q-1 -5 -8 -10 l2 -69 q-1 -5 -14 -8 q-15 -3 -15 2 l0 8 l-30 0 q-4 -29 -16 -47 q39 -19 91 -14 q5 -1 6 -2 q0 -1 -5 -1 q-11 -3 -16 -20 q-2 -8 -3 -10 q-42 3 -83 33 q-25 -26 -66 -30 q-9 -1 0 1 q33 11 52 42 q-14 14 -22 37 l3 0 q10 -16 24 -25 q7 16 9 36 ZM67 129 l0 -150 q-9 -10 -25 -7 q-1 2 -1 8 q1 5 2 21 l0 118 q-15 -22 -32 -37 q-8 -6 -2 2 q29 53 44 123 q-1 4 1 4 q1 1 6 0 q2 -2 8 -5 q13 -6 20 -9 q5 -3 -1 -7 q-1 0 -1 0 q-1 -1 -2 -1 q-3 -1 -4 -5 q-9 -20 -17 -33 q14 -8 13 -9 q-1 -2 -5 -6 q-4 -5 -4 -7 Z" /><glyph glyph-name="" unicode="&#x4fd8;" d="M166 78 l21 27 l-71 0 q-10 0 -17 0 l-5 7 q4 -1 8 -1 l86 0 q1 3 5 8 q1 4 8 0 q7 -5 22 -16 q0 -1 1 -2 q5 -3 -3 -4 q-4 -1 -9 -1 q-2 0 -4 -1 l-36 -18 q4 -2 8 -3 q1 -1 1 -4 q-2 -2 -7 -5 l0 -13 l29 0 q7 13 18 24 q1 0 4 0 q18 -13 30 -23 q2 -5 -2 -6 l-79 0 l0 -65 q-4 -13 -30 -14 q-1 1 -3 4 q-5 16 -21 19 q-6 2 -6 3 q0 2 6 0 q27 -4 27 4 l0 49 l-47 0 q-2 -1 -17 -1 l-5 7 q4 -1 8 -1 l61 0 l0 13 l-2 15 q0 0 1 1 q7 0 20 -3 ZM67 137 l0 -118 q0 -13 0 -26 q1 -9 1 -14 q-12 -11 -29 -7 q-2 3 -1 13 q1 9 2 29 l0 105 q-17 -26 -32 -40 q-6 -5 -2 2 q29 61 42 126 q-1 4 0 4 q1 1 6 0 q15 -4 33 -11 q3 -2 3 -4 q0 -2 -3 -2 q-1 -1 -2 -1 q-5 -2 -6 -6 q-3 -6 -9 -17 q-5 -10 -9 -19 q0 -1 1 -1 q10 -2 12 -3 q3 -2 0 -5 q-4 -4 -7 -5 ZM93 182 q52 6 107 28 q5 3 10 -1 q7 -7 22 -16 q3 -3 2 -4 q0 -1 -3 -1 q-5 -1 -15 -2 q-63 -8 -123 -6 q-13 0 0 2 ZM92 161 q30 -3 34 -22 q0 -27 -22 -17 q-5 4 -6 19 q-1 14 -6 17 q-4 1 -4 2 q0 0 4 1 ZM140 169 q29 -6 34 -27 q-6 -24 -27 -14 q-4 3 -4 18 q0 15 -4 19 q-3 2 -3 3 q0 1 4 1 ZM184 126 q8 16 17 42 q1 5 7 3 q7 -3 21 -9 q3 -1 5 -1 q3 -1 2 -3 q0 -1 -3 -2 q-4 -2 -5 -2 q-2 1 -3 -1 q-6 -4 -11 -8 q-19 -15 -28 -21 q-5 -3 -2 2 Z" /><glyph glyph-name="" unicode="&#x4fdd;" d="M192 132 l-72 0 l0 -5 q-1 -4 -10 -7 q-14 -3 -17 0 q-2 1 -1 7 q0 5 1 15 l0 62 q15 -4 30 -13 l64 0 q5 6 9 11 q1 2 6 1 q-1 0 1 0 q10 -6 21 -13 q5 -4 1 -7 q-4 -4 -6 -6 l2 -43 q0 -6 -13 -9 q-15 -3 -16 2 l0 5 ZM120 137 l72 0 l0 48 l-72 0 l0 -48 ZM174 84 l1 0 q22 -50 75 -65 q3 -1 3 -2 q0 -1 -3 -1 q-16 -2 -27 -18 q-2 -2 -2 -3 q-40 23 -50 89 l-5 0 l0 -37 q0 -8 0 -47 q1 -18 1 -20 q-1 -5 -13 -8 q-14 -3 -16 1 q-1 4 0 18 q1 23 1 48 l0 17 q-28 -42 -70 -62 q-7 -2 -2 2 q38 35 55 88 l-30 0 q-2 -1 -17 -1 l-5 7 q4 -1 8 -1 l61 0 l0 38 q24 -2 34 -5 q2 -3 0 -6 q-2 -2 -7 -5 l0 -22 l34 0 l4 0 q0 0 0 1 q12 16 17 20 q0 1 3 0 q25 -15 29 -22 q1 -4 -2 -4 l-77 0 ZM62 135 l0 -152 q-8 -10 -29 -10 q-1 1 0 9 q1 9 2 19 l0 115 q-14 -22 -27 -35 q-3 -3 -4 -3 q-1 1 1 4 q26 58 34 121 q0 5 1 5 q1 1 5 0 q9 -3 28 -12 q2 -1 4 -1 q4 -3 4 -4 q0 -1 -5 -4 q-2 -1 -3 -2 q-3 0 -4 -4 q-6 -16 -15 -32 q9 -3 15 -6 q0 0 0 -3 q-1 -2 -4 -3 q-3 -2 -3 -2 Z" /><glyph glyph-name="" unicode="&#x4fe1;" d="M84 156 l127 0 q4 6 15 18 q0 1 3 0 q15 -7 26 -19 q2 -4 -2 -4 l-156 0 q-9 -1 -17 -1 l-5 7 q4 -1 9 -1 ZM108 119 l76 0 q1 2 8 9 q5 6 7 9 q2 0 4 0 q15 -12 22 -20 q1 -3 -1 -4 l-103 0 q-9 0 -17 0 l-5 7 q4 -1 9 -1 ZM110 81 l77 0 q7 11 15 18 q1 1 3 0 q13 -8 23 -19 q1 -3 -1 -4 l-103 0 q-2 -1 -17 -1 l-5 7 q4 -1 8 -1 ZM202 -10 l-74 0 l0 -11 q-13 -13 -28 -6 q0 24 1 34 l0 53 q7 -1 28 -11 l68 0 q5 6 10 10 q3 1 5 0 q13 -6 22 -12 q1 -1 0 -3 q-3 -3 -5 -5 l0 -38 q0 -2 0 -11 q0 -9 1 -12 q-2 -4 -16 -7 q-12 -1 -12 3 l0 16 ZM128 -5 l74 0 l0 49 l-74 0 l0 -49 ZM64 143 l0 -164 q-13 -14 -25 -5 q0 15 0 27 q0 13 1 24 l0 97 q-17 -23 -36 -40 q-3 -1 -2 2 q32 51 51 129 q1 2 5 1 q21 -9 35 -16 q1 -2 -1 -4 q-2 -2 -6 -3 q-4 -2 -5 -3 q-8 -16 -17 -32 q3 -2 7 -5 q1 -2 -1 -3 q-3 -4 -6 -5 ZM133 215 q38 -7 43 -32 q0 -15 -14 -21 q-14 -4 -19 9 q-3 4 -2 15 q2 18 -9 26 q-2 1 1 3 Z" /><glyph glyph-name="" unicode="&#x4fee;" d="M75 20 l0 123 l-1 12 q-1 0 1 1 q15 -3 29 -6 q1 -2 0 -4 q-1 -2 -4 -3 q-1 0 -1 0 l0 -123 q-19 -13 -24 0 ZM59 129 l0 -150 q-1 -5 -12 -7 q-15 -3 -16 1 q0 30 1 49 l0 83 q-11 -14 -22 -25 q-4 -1 -3 2 q28 46 46 126 q1 2 5 1 q10 -5 31 -16 q1 -2 -1 -3 q-2 -1 -9 -4 q-10 -24 -23 -46 q8 -5 8 -5 q0 -2 -4 -5 q-1 -1 -1 -1 ZM149 169 l43 0 q3 6 8 13 q2 0 4 0 q4 -3 16 -12 q5 -4 11 -7 q0 -1 0 -4 q-4 -1 -3 -1 q-6 -2 -8 -4 q-15 -20 -33 -34 q26 -15 59 -11 q2 -1 1 -3 q-15 -9 -19 -27 q-1 -3 -3 -3 q-34 6 -58 30 q-26 -17 -60 -25 q-4 0 -1 2 q30 15 51 36 q-11 16 -15 40 q-15 -20 -35 -37 q-2 0 -2 2 q19 31 26 80 q0 3 3 3 q2 -1 7 -3 q20 -5 28 -8 q0 -1 0 -3 q-2 -2 -7 -5 q-2 -1 -3 -1 q-5 -9 -10 -18 ZM192 164 l-46 0 l-2 -2 q9 -18 25 -31 q13 15 23 33 ZM170 91 q6 -3 22 -15 q1 -1 0 -4 q-5 0 -10 0 q-42 -25 -76 -29 q-2 0 0 3 q31 13 59 45 q1 2 5 0 ZM190 62 q5 -4 18 -15 q2 -2 4 -3 q1 -2 -1 -3 q-3 -1 -5 -1 q-3 0 -5 0 q-47 -25 -100 -31 q-3 0 -1 2 q48 15 86 51 q2 1 4 0 ZM222 33 q12 -10 24 -22 q1 -2 -1 -3 q-8 0 -11 -1 q-73 -34 -151 -32 q-2 1 -2 2 q0 1 2 1 q75 8 135 55 q0 0 1 0 q2 0 3 0 Z" /><glyph glyph-name="" unicode="&#x500c;" d="M131 39 l0 -41 l64 0 l0 41 l-64 0 ZM131 116 l0 -35 l48 0 l0 35 l-48 0 ZM107 13 l0 119 q14 -4 24 -11 l40 0 q4 5 10 10 q2 1 5 0 q10 -3 23 -12 q2 -2 1 -4 q-4 -4 -7 -7 l2 -35 q-1 -6 -12 -9 q-14 -3 -14 3 l0 9 l-48 0 l0 -32 l56 0 q0 0 2 2 q4 5 8 8 q2 1 4 0 q13 -6 22 -12 q1 -1 0 -4 q-1 -4 -4 -5 l1 -49 q0 -5 -11 -7 q-13 -2 -14 2 l0 14 l-64 0 l0 -12 q-11 -12 -26 -6 q0 5 0 16 q1 13 2 22 ZM61 137 l0 -155 q-1 -5 -11 -8 q-13 -2 -14 2 q0 3 0 13 q0 12 1 31 l0 106 q-14 -18 -29 -32 q-3 1 -2 3 q28 46 39 111 q0 1 3 2 q11 -5 36 -14 q1 -2 -1 -4 q-3 -2 -2 -1 q-6 -3 -7 -4 q-8 -17 -18 -34 q7 -3 12 -7 q0 -1 0 -3 q0 -1 0 -1 q-2 -2 -5 -4 q-2 -1 -2 -1 ZM105 159 l103 0 q2 6 7 12 q2 1 4 1 q14 -6 31 -19 q0 -1 0 -4 q-1 -1 -9 -1 q-7 0 -11 0 q-12 -4 -28 -15 q-2 -1 -2 0 q-1 1 0 3 q2 3 6 11 q3 5 4 6 l-104 0 q3 -14 -5 -26 q-8 -10 -18 -7 q-12 5 -8 16 q1 4 7 10 q11 11 11 28 q0 2 2 1 q7 -8 10 -16 ZM130 213 q39 -5 44 -26 q2 -15 -10 -21 q-13 -6 -19 6 q-2 4 -3 13 q0 18 -12 25 q-1 0 0 3 Z" /><glyph glyph-name="" unicode="&#x503c;" d="M115 12 l0 -30 l69 0 l0 30 l-69 0 ZM115 50 l0 -32 l69 0 l0 32 l-69 0 ZM115 87 l0 -32 l69 0 l0 32 l-69 0 ZM115 121 l0 -29 l69 0 l0 32 l-65 0 q-2 -2 -4 -3 ZM173 198 l-8 -4 l-2 -27 l37 0 q1 1 7 9 q6 7 8 9 q0 0 2 0 q1 0 2 0 q18 -11 25 -19 q2 -4 -1 -5 l-81 0 l-2 -32 l21 0 q7 11 11 11 q14 -4 27 -14 q0 -2 -5 -6 q-3 -4 -3 -4 l0 -134 l2 0 q10 14 16 18 q-1 0 3 0 q14 -9 22 -19 q2 -3 -1 -4 l-167 0 q-8 0 -16 -1 l-6 7 q4 0 9 -1 l20 0 l0 142 l-1 15 q-1 0 1 1 q16 -4 29 -10 q0 0 0 -1 l14 0 l1 32 l-37 0 q-10 0 -17 0 l-5 7 q4 -1 8 -1 l51 0 q0 8 0 18 q1 11 1 23 q-1 2 3 2 q17 -2 32 -8 q1 -2 0 -4 ZM59 137 l0 -158 q-1 -8 -14 -10 q-13 -1 -13 7 l1 132 q-14 -17 -27 -31 q-3 0 -3 3 q27 38 51 129 q0 1 6 2 q16 -6 33 -16 q1 -3 -1 -5 q-6 -3 -12 -6 q-11 -20 -21 -37 q5 -2 6 -4 q0 -2 -5 -5 q-1 -1 -1 -1 Z" /><glyph glyph-name="" unicode="&#x503e;" d="M173 92 l0 37 q2 2 4 3 q17 -2 27 -6 q2 -2 0 -4 q-2 -3 -6 -5 q-1 -1 -1 -1 l0 -24 q2 -115 -95 -121 q-2 3 0 5 q73 18 71 116 ZM191 25 q35 -6 52 -21 q15 -15 4 -30 q-17 -13 -27 6 q0 1 -3 10 q-8 23 -26 32 q-3 0 0 3 ZM181 150 l27 0 q9 10 11 10 q1 0 6 0 q12 -8 20 -14 q1 -2 -1 -4 q-1 -1 -4 -2 q-3 0 -3 0 l2 -102 q-1 -8 -11 -12 q-14 -3 -15 4 l0 115 l-55 0 l0 -115 q-1 -6 -12 -9 q-12 -2 -12 4 l0 37 l0 74 l-1 23 q0 1 3 2 q7 -3 19 -11 q1 0 2 0 l9 0 l3 35 l-31 0 q-10 0 -13 -1 l-9 8 q9 -2 18 -1 l67 0 q7 7 14 15 q3 3 5 5 q1 1 5 1 q1 -1 2 -3 q24 -18 25 -21 q0 -4 -2 -3 l-49 0 q1 -2 1 -3 q-1 -1 -5 -3 q4 2 -3 -2 q-4 -2 -11 -21 q-2 -5 -2 -6 ZM73 36 l0 120 l-2 12 q0 1 1 3 q21 -3 28 -6 q2 -2 1 -4 q-3 -2 -8 -5 l0 -46 l8 0 q1 2 3 4 q5 9 8 10 q0 0 3 0 q10 -7 16 -15 q2 -4 0 -4 l-38 0 l0 -57 q5 2 13 6 q14 7 20 11 q1 -2 2 -3 q-24 -29 -43 -56 q-3 -2 -5 0 q-13 15 -15 18 q-1 0 -2 1 q-1 1 1 4 q0 0 2 1 q5 4 7 6 ZM54 137 l0 -158 q-15 -16 -24 -4 l0 143 q-11 -16 -24 -31 q-5 1 -4 3 q32 60 43 121 q0 2 3 3 q16 -5 35 -15 q1 -2 0 -5 q-1 -1 -4 -1 q-7 -2 -8 -3 q-3 -8 -15 -30 q-2 -4 -4 -8 q6 -2 10 -4 q1 -2 0 -5 q-1 -1 -2 -1 q-4 -2 -6 -5 Z" /><glyph glyph-name="" unicode="&#x5047;" d="M101 185 l0 -45 l30 0 l0 48 l-25 0 q-2 -2 -5 -3 ZM80 23 l0 165 l-2 15 q0 0 1 1 q19 -4 30 -11 l16 0 q6 7 9 8 q1 1 2 0 q1 0 2 0 q1 -1 3 -2 q10 -6 15 -10 q1 -2 0 -4 q-1 -4 -4 -5 l3 -50 q-1 -6 -14 -9 q-10 -2 -10 4 l0 10 l-30 0 l0 -48 l19 0 q0 0 5 6 q5 6 6 7 q1 1 3 0 q8 -6 17 -15 q2 -4 -2 -4 l-48 0 l0 -40 l27 0 q4 6 13 16 q2 0 3 0 q12 -10 18 -18 q0 -4 -2 -3 l-59 0 l0 -54 q-12 -12 -22 -5 q-2 3 -1 14 q1 9 2 32 ZM211 123 l0 9 l-29 0 q-7 -1 -14 -1 l-8 7 q4 -1 9 -1 l42 0 l0 51 l-29 0 l-11 0 l-7 6 q4 -1 8 -1 l31 0 q4 5 10 10 q3 1 4 0 q7 -3 22 -12 q0 -3 1 -3 q-2 -4 -5 -5 l2 -56 q-1 -6 -14 -9 q-12 -1 -12 5 ZM53 127 l0 -143 q-11 -14 -24 -8 q-2 4 -1 16 q1 14 1 29 l0 91 q-11 -18 -23 -33 q-2 1 -2 2 q23 41 33 123 q1 2 4 2 q15 -4 30 -10 q1 -2 0 -4 q-3 -2 -7 -4 q-8 -23 -18 -45 q9 -5 14 -8 q0 -1 0 -3 q-5 -5 -7 -5 ZM206 87 l-29 0 l-11 -1 q6 -27 19 -45 q16 26 21 46 ZM163 86 l-1 0 l-7 7 q4 -1 9 -1 l39 0 q0 0 2 2 q3 4 5 6 q2 1 4 0 q2 -2 5 -3 q15 -9 21 -13 q2 -2 0 -3 q-2 -2 -4 -3 q-3 -1 -4 -4 q-12 -27 -31 -49 q20 -19 47 -23 q3 -1 0 -2 q-13 -4 -23 -25 q-1 -2 -2 -3 q-24 12 -39 36 q-30 -22 -67 -29 q-2 1 -3 2 q0 1 2 1 q31 10 59 45 q-9 23 -12 59 Z" /><glyph glyph-name="" unicode="&#x505a;" d="M101 31 l30 0 l0 58 l-30 0 l0 -58 ZM104 95 l0 48 l-12 0 q-2 -1 -17 -1 l-5 7 q4 -1 8 -1 l26 0 l0 48 l-1 13 q0 0 0 0 q0 -1 0 -1 q0 1 1 2 q18 -3 30 -7 q0 -1 0 -4 q-1 -1 -6 -3 l0 -48 l3 0 q9 11 13 16 q1 0 3 0 q12 -10 18 -18 q-1 -3 -2 -3 l-35 0 l0 -48 l3 0 q0 0 1 2 q4 5 7 5 q13 -4 21 -11 q0 -2 -3 -5 q-2 -2 -2 -2 l0 -69 q-4 -6 -16 -7 q-8 1 -8 9 l0 8 l-30 0 l0 -24 q-19 -8 -21 3 l0 99 q12 -3 21 -8 l3 0 ZM61 132 l0 -109 q0 -12 0 -28 q1 -11 1 -15 q-12 -13 -26 -6 q0 2 0 7 q0 11 1 38 l0 94 q-11 -18 -30 -39 q-3 -1 -2 2 q29 53 40 131 q2 3 5 2 q8 -3 26 -12 q3 -2 7 -3 q3 -3 0 -5 q-2 -1 -4 -2 q-6 -1 -6 -4 q-4 -9 -12 -27 q-2 -5 -4 -9 q6 -3 11 -6 q0 -1 0 -3 q0 -1 0 -1 q-2 -2 -5 -4 q-2 -1 -2 -1 ZM203 121 l0 16 l-24 0 q-1 -1 -2 -2 q-1 -2 -1 -2 q3 -48 17 -76 q9 26 10 64 ZM173 87 l0 41 q-9 -14 -18 -25 q-2 -2 -3 1 q17 39 27 103 q0 0 2 3 q22 -7 33 -12 q1 -2 0 -3 q-3 -2 -5 -3 q-5 -2 -6 -4 q-9 -26 -21 -45 l29 0 q9 12 15 18 q1 0 3 0 q14 -10 23 -20 q1 -4 -1 -4 l-27 0 q4 -3 10 -6 q1 -2 0 -4 q-2 -2 -7 -6 q-3 -55 -21 -86 q18 -26 43 -32 q1 -3 0 -3 q-18 -1 -26 -19 q-3 -3 -4 -2 q-19 14 -29 34 q-29 -26 -75 -32 q-4 1 -1 2 q42 12 68 50 q-9 25 -9 54 Z" /><glyph glyph-name="" unicode="&#x5085;" d="M168 119 l0 -24 l32 0 l0 24 l-32 0 ZM168 148 l0 -24 l32 0 l0 24 l-32 0 ZM144 124 l0 24 l-27 0 l0 -24 l27 0 ZM144 95 l0 24 l-27 0 l0 -24 l27 0 ZM144 63 l0 26 l-27 0 l0 -21 q-1 -5 -10 -7 q-12 -3 -14 1 q-2 2 -1 9 q0 5 1 17 l0 73 q12 -2 20 -8 l31 0 l0 19 l-44 0 q-2 -1 -17 -1 l-5 7 q4 -1 8 -1 l58 0 l0 22 l-1 12 q0 0 0 0 q-1 0 1 1 q14 -2 30 -6 q0 -2 0 -4 q-1 -2 -6 -3 l0 -22 l43 0 q7 11 15 18 q1 1 3 0 q13 -8 23 -19 q1 -3 -1 -4 l-83 0 l0 -19 l27 0 q7 9 13 11 q15 -5 24 -13 q0 -4 -8 -11 l3 -66 q-1 -6 -15 -9 q-12 -2 -12 4 l0 20 l-32 0 l0 -26 q-19 -13 -24 0 ZM176 -2 l0 41 l-84 0 q-2 -1 -17 -1 l-5 7 q4 -1 8 -1 l98 0 l0 8 q-1 1 -1 4 q-1 2 -1 4 q-1 3 -1 4 q1 1 4 1 q3 -1 12 -2 q9 -2 13 -2 q3 -1 3 -2 q1 -1 -1 -3 q-1 -1 -2 -2 q-4 -2 -2 -5 l0 -5 l13 0 q10 13 16 18 q-1 0 3 0 q12 -7 22 -19 q2 -4 -1 -4 l-53 0 l0 -35 q0 -4 0 -12 q1 -6 1 -9 q-8 -12 -28 -12 q-1 1 -3 5 q-6 15 -17 18 q-5 1 -6 3 q1 1 6 0 q19 -3 23 1 ZM64 137 l0 -117 q0 -15 0 -28 q1 -7 1 -10 q-9 -10 -26 -7 q-1 3 -1 10 q1 7 2 28 l0 115 q-16 -22 -29 -35 q-3 -3 -4 -3 q-1 1 1 5 q26 51 39 111 q0 4 1 4 q1 1 6 0 q3 -2 12 -5 q9 -4 16 -5 q0 -1 0 -1 q7 -3 0 -7 q-2 -1 -3 -2 q-4 -1 -3 -3 q-9 -17 -19 -33 q9 -5 14 -8 q1 -2 -1 -4 q-1 -2 -5 -4 q-1 -1 -1 -1 ZM182 211 q18 1 26 -9 q5 -10 -1 -17 q-9 -8 -16 -1 q-3 2 -4 11 q-2 10 -5 12 q-3 0 -3 2 q0 1 3 2 ZM114 38 q17 -2 25 -13 q6 -12 -1 -21 q-8 -7 -17 -2 q-4 3 -4 17 q0 14 -4 16 q-3 1 -3 2 q1 1 4 1 Z" /><glyph glyph-name="" unicode="&#x508d;" d="M216 116 l-116 0 q2 -17 -5 -28 q-8 -8 -17 -3 q-9 6 -5 16 q1 4 6 10 q10 10 9 22 q0 0 2 1 q5 -6 8 -13 l67 0 q2 6 5 22 q3 11 6 21 l-71 0 q-9 0 -17 0 l-5 6 q5 0 9 -1 l63 0 q-8 1 -11 11 q-1 3 -1 9 q0 13 -6 19 q-3 2 -3 3 q0 1 4 1 q34 -5 35 -27 q-1 -12 -12 -16 l35 0 q0 0 0 1 q12 16 17 20 q0 1 3 0 q25 -15 29 -22 q1 -4 -2 -4 l-54 0 q9 -2 16 -6 q3 -2 3 -3 q0 -1 -3 -3 q-2 -1 -4 -2 q-2 0 -2 -1 q-5 -7 -14 -17 q-4 -5 -9 -11 l37 0 q2 4 7 9 q2 3 6 0 q10 -8 23 -20 q1 -2 1 -4 q-1 -1 -3 -1 q-1 0 -6 0 q-18 -3 -32 -11 q-5 -3 -2 2 q4 10 9 20 ZM195 44 l-41 0 q-21 -56 -74 -68 q-4 1 -4 1 q-1 1 3 2 q45 25 49 84 l0 8 l-26 0 q-8 -1 -16 -1 l-6 7 q4 -1 9 -1 l66 0 q-6 0 -8 8 q-1 3 -2 7 q-1 15 -6 17 q-2 1 -2 2 q0 1 3 2 q23 -2 31 -17 q4 -14 -10 -19 l42 0 q0 0 1 2 q9 12 14 16 q0 0 3 0 q13 -8 23 -19 q1 -4 -1 -4 l-78 0 q-3 -5 -7 -8 q-1 -3 -2 -7 q-1 -5 -1 -7 l34 0 q1 1 3 3 q1 2 3 4 q3 3 8 0 q3 -2 13 -8 q7 -4 9 -4 q4 -4 0 -6 q-8 -5 -6 -6 q-13 -69 -46 -61 q-1 1 -2 4 q-4 15 -21 23 q-6 2 1 2 q35 -22 44 44 ZM67 127 l0 -145 q-1 -5 -11 -9 q-14 -4 -16 0 l3 139 q-19 -26 -35 -39 q-7 -5 -2 2 q32 55 44 133 q0 0 0 2 q-1 3 6 1 q1 -1 3 -2 q20 -8 29 -12 q3 -2 3 -3 q0 -1 -2 -3 q-2 -1 -4 -2 q-3 -1 -3 -2 q-8 -23 -20 -46 q4 -2 8 -5 q4 -2 1 -5 q-3 -3 -4 -4 ZM116 161 q23 -2 28 -20 q2 -13 -10 -17 q-12 -1 -14 11 q-1 3 -1 6 q0 13 -4 18 q-5 3 1 2 Z" /><glyph glyph-name="" unicode="&#x50a8;" d="M165 29 l0 -34 l40 0 l0 34 l-40 0 ZM165 68 l0 -34 l40 0 l0 34 l-40 0 ZM203 153 l-22 0 l0 -34 q11 16 22 34 ZM202 113 l11 0 q6 9 16 18 q0 1 3 0 q12 -7 22 -19 q2 -3 -1 -4 l-56 0 q-17 -16 -33 -30 q-2 -2 -3 -2 q0 -1 2 -2 q1 -1 2 -1 l35 0 q0 0 2 3 q5 5 8 7 q0 0 4 1 q17 -9 22 -13 q0 -1 0 -3 l-6 -6 l1 -80 q-2 -7 -16 -8 q-10 0 -10 8 l0 8 l-40 0 l0 -11 q-2 -7 -14 -9 q-11 -1 -11 6 l1 86 q-13 -9 -26 -18 q-2 -1 -4 1 q0 2 2 4 q14 11 28 25 l0 10 q7 -2 9 -3 q12 13 23 27 l-31 0 q-8 -1 -16 -1 l-6 7 q4 -1 9 -1 l28 0 l0 40 l-6 0 l-15 0 l-7 6 l9 0 l19 0 l0 48 q1 -1 4 -1 q22 -3 26 -5 q2 -2 1 -5 q-5 -5 -7 -5 l0 -32 q8 10 11 12 q0 1 4 1 q1 -3 3 -5 q5 -6 7 -8 q2 4 7 14 q1 3 4 8 q1 1 5 0 q9 -4 26 -14 q1 -3 -1 -4 q-2 -2 -6 -4 q-3 -1 -4 -1 q-12 -18 -35 -45 ZM138 40 l-44 -55 q-1 0 -2 0 q-2 0 -2 0 q-10 15 -15 24 q0 0 0 1 q0 0 1 1 l10 6 l0 97 l-17 -1 l-7 6 l9 0 l9 0 q3 2 11 10 q1 0 3 0 q12 -8 20 -15 q1 -3 0 -3 q-1 -1 -4 -3 q-3 -3 -3 -3 l0 -80 q23 13 29 17 q1 -1 2 -2 ZM56 137 l0 -155 q-2 -7 -15 -10 q-10 0 -10 7 l1 142 l0 6 q-3 -4 -5 -8 q-7 -12 -21 -32 q-4 -1 -3 3 q26 53 37 121 q1 2 4 2 q17 -7 31 -12 q0 -1 0 -4 q-3 -2 -10 -6 q-8 -20 -18 -36 q7 -3 16 -9 q1 -2 -1 -4 q-1 -2 -5 -4 q-1 -1 -1 -1 ZM79 194 q27 -7 37 -25 q4 -14 -7 -22 q-13 -6 -19 6 q-2 2 -2 6 q0 4 0 6 q0 13 -10 26 q-1 2 1 3 Z" /><glyph glyph-name="" unicode="&#x50cf;" d="M147 153 l10 27 l-26 0 q-15 -15 -25 -23 q3 -2 6 -4 l35 0 ZM61 137 l0 -101 q0 -18 2 -51 q-2 -4 -16 -7 q-12 -1 -11 3 q0 34 1 53 l0 85 q-16 -22 -30 -33 q-4 -2 -2 2 q31 53 43 125 q0 1 3 2 q5 -2 37 -14 q1 -3 -1 -4 q-2 -1 -5 -3 q-4 -2 -5 -3 q-8 -20 -19 -39 q5 -2 10 -6 q0 -1 0 -3 q0 -1 0 -1 q-2 -2 -5 -4 q-2 -1 -2 -1 ZM141 137 l0 11 l-29 0 l0 -37 l24 0 q4 13 5 26 ZM203 111 l0 37 l-31 0 q-1 -1 -3 -3 q-4 -3 -4 -4 l0 -5 q0 -12 -5 -25 l43 0 ZM133 105 l-21 0 l0 -5 q-4 -6 -14 -5 q-7 1 -7 8 l0 42 q-5 -4 -16 -10 q-2 0 -2 2 q28 33 43 75 q1 3 4 3 q23 -8 35 -11 q1 -2 0 -4 q-3 -1 -6 -2 q-2 0 -3 -1 q-2 -3 -5 -6 q-4 -4 -5 -6 l21 0 q0 0 2 3 q5 5 9 8 q2 0 4 0 q13 -5 25 -11 q1 -2 0 -3 q-3 -2 -6 -2 q-3 -1 -5 -2 q-27 -22 -29 -25 l40 0 q1 1 1 1 q8 10 10 10 q9 -2 25 -14 q0 -2 -5 -6 q-1 -1 -1 -1 l0 -40 q-19 -13 -24 0 l0 2 l-45 0 q-7 -12 -20 -20 q15 -8 25 -24 q16 12 34 33 q0 0 1 0 q2 0 4 0 q11 -6 26 -14 q-1 -1 -1 -2 q-3 -1 -7 -1 q-5 -1 -7 -1 q-15 -6 -31 -12 q22 -41 67 -48 q2 -3 1 -3 q-23 -8 -28 -22 q-1 -2 -2 -1 q-33 18 -41 73 q-6 -3 -14 -5 q9 -18 9 -41 q-1 -44 -39 -46 q-2 1 -2 1 q-7 16 -23 21 q-1 3 1 3 q39 -10 41 26 q0 2 0 5 q-37 -25 -83 -32 q-2 1 -1 2 q37 13 81 54 q-1 1 -1 4 q-1 2 -1 4 q-29 -23 -73 -34 q-1 0 -1 2 q40 20 64 52 q-2 1 -3 3 q-23 -13 -55 -17 q-3 0 0 2 q35 9 54 38 Z" /><glyph glyph-name="" unicode="&#x5112;" d="M102 132 l29 0 l0 -5 l-15 0 q-2 -1 -17 -1 l-5 7 q4 -1 8 -1 ZM97 108 l34 0 l0 -5 l-21 0 q-8 -1 -16 -1 l-6 7 q4 -1 9 -1 ZM182 132 l34 0 l0 -5 l-20 0 q-2 -1 -17 -1 l-5 7 q4 -1 8 -1 ZM182 108 l37 0 l0 -5 l-23 0 q-2 -1 -17 -1 l-5 7 q4 -1 8 -1 ZM139 47 l64 0 q4 9 10 10 q16 -6 23 -14 q-2 -4 -6 -7 l0 -29 l1 -27 q-4 -11 -26 -13 q-4 2 -3 3 q-1 1 -1 2 q-3 12 -17 15 q0 1 -1 2 q-1 3 2 2 q16 -2 21 2 l0 48 l-21 0 q-1 -3 -6 -8 l0 -52 q-18 -14 -22 1 l0 59 l-12 0 q-1 -1 -2 -3 q-3 -4 -3 -5 l0 -54 q-19 -12 -21 1 l0 61 l-18 0 l0 -62 q-15 -13 -25 -3 l1 35 l0 29 l-1 17 q0 2 2 2 q14 -4 22 -12 l25 0 l5 29 l-36 0 q-8 -1 -16 -1 l-6 7 q4 -1 9 -1 l127 0 q4 7 15 18 q2 1 4 0 q13 -9 22 -19 q1 -3 -1 -4 l-85 0 q-1 -3 -5 -5 q-3 -1 -3 -1 q-10 -15 -16 -23 ZM215 159 l-52 0 l0 -27 l2 -35 q-22 -14 -26 0 l0 62 l-42 0 q1 -8 0 -13 q-5 -15 -18 -15 q-14 3 -9 17 q1 2 5 6 q8 8 10 21 q0 2 3 1 q4 -6 7 -12 l44 0 l0 24 l-15 0 q-2 -1 -17 -1 l-5 7 q4 -1 8 -1 l74 0 q4 6 13 16 q2 0 3 0 q12 -10 18 -18 q0 -4 -2 -3 l-45 0 q-1 -1 -1 -2 q-3 -4 -7 -6 l0 -16 l48 0 q-1 0 9 9 q0 1 2 1 q1 -1 2 0 q12 -6 26 -16 q3 -5 -2 -8 q-1 -1 -4 -1 q-22 1 -33 -10 q-2 -2 -4 -2 q-2 1 0 3 q1 6 8 19 ZM56 137 l0 -160 q-24 -13 -27 -1 l3 93 l0 52 q-12 -14 -25 -23 q-3 -1 -4 -1 q-1 1 1 3 q37 56 47 112 q-1 4 6 2 q21 -9 29 -14 q3 -3 0 -5 q-3 -2 -2 -1 q-6 -3 -5 -3 q-1 -2 -2 -4 q-12 -22 -22 -36 q4 -2 8 -5 q1 -2 -1 -4 q-1 -2 -5 -4 q-1 -1 -1 -1 Z" /><glyph glyph-name="" unicode="&#x513f;" d="M64 92 l0 99 l-1 14 q-1 1 1 2 q7 -1 34 -9 q-1 -3 -1 -3 q-2 -2 -6 -4 l0 -99 q-1 -94 -79 -116 q-4 -1 -2 1 q51 33 54 115 ZM184 9 l16 0 q29 -1 38 47 q2 1 4 -1 q-7 -29 1 -41 q1 -2 2 -2 q12 -23 -28 -28 l-44 0 q-34 1 -37 27 l0 174 l-2 29 q0 0 2 1 q18 -4 34 -10 q0 -1 0 -3 q-1 -2 -5 -5 q-2 -1 -2 -1 l0 -171 q0 -11 15 -15 q3 -1 6 -1 Z" /><glyph glyph-name="" unicode="&#x5141;" d="M163 108 l0 -90 q-2 -18 17 -17 l23 0 q27 -4 38 46 q2 2 3 0 q-9 -29 1 -47 q3 -2 3 -5 q-1 -20 -40 -21 l-37 0 q-34 1 -35 21 l0 125 q-23 -3 -44 -6 q17 -3 22 -5 q1 -1 1 -2 q0 -2 0 -2 q-1 -2 -5 -5 l0 -25 q-3 -94 -100 -102 q-3 3 0 3 q71 17 73 103 l0 33 q-21 -3 -40 -7 q-2 0 -4 3 q-3 5 -9 26 q-1 2 2 4 q32 6 69 72 q0 1 5 2 q15 -5 40 -16 q2 -2 0 -4 q-4 -2 -7 -3 q-3 -1 -4 -1 l-68 -51 l125 -2 q-9 19 -27 30 q-2 1 0 2 q41 -3 62 -26 q11 -18 3 -32 q-11 -14 -25 -1 q-5 6 -9 19 q-24 -3 -48 -6 q4 -1 2 -1 q14 -2 17 -3 q2 -1 1 -4 q-1 -2 -5 -5 Z" /><glyph glyph-name="" unicode="&#x5143;" d="M52 185 l109 0 q0 0 0 1 q12 16 17 20 q1 1 3 0 q25 -15 29 -22 q1 -4 -2 -4 l-143 0 q-9 -1 -17 -1 l-5 7 q4 -1 9 -1 ZM180 4 l20 0 q24 -4 38 49 q2 1 2 -1 q-7 -29 5 -44 q6 -6 6 -10 q-2 -18 -35 -19 l-51 0 q-30 1 -29 19 l0 118 l-22 0 q-2 -2 -5 -3 q-2 -1 -2 -2 l0 -22 q-1 -100 -98 -113 q-3 1 -1 2 q66 21 69 103 l0 35 l-44 0 q-9 -1 -17 -1 l-5 7 q4 -1 9 -1 l172 0 q9 13 18 24 q2 0 4 0 q18 -13 30 -23 q2 -5 -1 -6 l-75 0 q0 -2 -3 -7 q-2 -3 -2 -4 l0 -86 q-2 -17 17 -15 Z" /><glyph glyph-name="" unicode="&#x5145;" d="M176 0 l16 0 q35 -3 43 47 q0 3 3 3 q2 0 3 -3 q-2 -13 -2 -28 q0 -12 2 -14 q0 -2 3 -4 q6 -5 5 -13 q-5 -14 -30 -14 l-57 0 q-27 1 -26 20 l0 77 l-1 14 q-1 1 1 2 q5 0 34 -7 q0 -3 0 -4 q-2 -4 -7 -5 l0 -62 q0 -9 13 -9 ZM102 216 q40 -9 45 -30 q-1 -17 -14 -21 q-15 -2 -21 12 q-1 1 -1 3 q-1 18 -11 31 q-2 1 -2 3 q1 1 4 2 ZM154 134 q-3 2 2 5 q57 -7 66 -32 q4 -20 -8 -29 q-13 -6 -25 10 q-2 3 -5 12 q-58 -8 -93 -14 q16 -1 26 -4 q2 -3 0 -6 q-2 -2 -7 -5 l0 -14 q-2 -80 -98 -90 q-3 1 -3 3 q0 2 3 2 q67 18 71 85 l0 28 q-3 -1 -6 -2 q-14 -2 -23 -6 q-2 -1 -4 2 q-1 1 -3 5 q-8 17 -10 21 q-1 1 1 3 q0 0 1 1 q32 9 58 50 l-64 0 q-9 -1 -17 -1 l-5 7 q4 -1 9 -1 l178 0 q2 2 7 9 q6 9 10 12 q2 0 4 0 q0 -1 2 -2 q24 -15 27 -20 q0 -4 -3 -4 l-117 0 q8 -3 13 -6 q1 -3 -1 -5 q-7 -3 -9 -3 q-36 -29 -48 -37 l96 1 q-11 17 -25 25 Z" /><glyph glyph-name="" unicode="&#x5146;" d="M85 102 l0 89 l-1 14 q0 1 1 2 q8 -1 34 -7 q-1 -1 0 -2 q0 -3 0 -2 q-1 -3 -7 -5 l0 -86 q7 -116 -106 -132 q-5 3 -2 6 q78 21 81 107 q-4 -4 -14 -12 q-25 -22 -39 -34 q-3 -2 -4 0 q-2 2 -7 15 q-6 12 -7 15 q0 4 2 6 q24 6 69 26 ZM31 155 q33 1 42 -17 q5 -14 -6 -24 q-10 -8 -20 3 q-3 2 -5 10 q-2 16 -13 24 q-2 2 2 4 ZM166 92 l0 -70 q-1 -16 12 -15 l22 0 q32 -3 42 48 q0 2 3 2 q3 -1 2 -3 q-8 -31 2 -46 q4 -5 4 -8 q-3 -21 -50 -21 l-38 0 q-26 0 -26 28 l0 184 l-2 14 q0 1 1 2 q8 -1 34 -7 q0 -1 1 -4 q-2 -4 -7 -5 l0 -78 q22 26 36 52 q3 0 4 0 q19 -13 29 -24 q0 -1 -1 -5 q-6 -2 -14 -2 q-11 -8 -50 -30 q-3 -2 -4 -2 l0 -4 q47 -4 62 -25 q6 -16 -4 -26 q-11 -8 -22 4 q-3 2 -7 10 q-12 21 -29 31 Z" /><glyph glyph-name="" unicode="&#x5148;" d="M85 159 l35 0 l0 34 q0 3 -3 10 q-1 5 0 7 q3 2 22 -2 q16 -4 17 -7 q0 -3 -4 -5 q-3 -2 -3 -3 l0 -34 l33 0 q2 2 8 9 q6 8 9 11 q2 1 4 0 q21 -13 29 -21 q-1 -5 -3 -5 l-80 0 l0 -56 l48 0 q8 13 19 24 q1 0 3 0 q22 -15 30 -23 q2 -5 -1 -6 l-94 0 q7 -2 11 -3 q1 -1 1 -3 q0 -1 0 -1 q-1 -2 -4 -3 q-2 -1 -2 -1 l0 -64 q-1 -14 16 -13 l32 0 q19 -4 33 41 q1 1 3 0 q-9 -28 1 -44 q3 -1 3 -3 q0 -17 -24 -19 l-64 0 q-27 0 -27 21 l0 92 l-29 0 q8 -2 16 -3 q2 -2 1 -4 q-1 -2 -5 -6 q-3 -3 -3 -4 q-3 -95 -104 -102 q-4 1 -1 2 q76 24 77 104 l0 13 l-55 0 q-8 -1 -16 -1 l-6 7 q4 -1 9 -1 l103 0 l0 56 l-38 0 q-20 -32 -44 -50 q-3 0 -2 3 q20 31 28 91 q0 2 3 1 q17 -3 37 -10 q2 -2 0 -4 q-2 -2 -5 -4 q-4 -2 -5 -3 q-5 -11 -9 -18 Z" /><glyph glyph-name="" unicode="&#x5149;" d="M80 97 l-52 0 q-10 0 -17 0 l-5 7 q4 -1 8 -1 l93 0 l0 93 l-2 15 q0 0 1 1 q15 -1 34 -7 q1 -1 1 -4 q-2 -4 -7 -5 l0 -93 l2 0 q1 2 3 6 q26 57 34 81 q0 -1 1 0 q2 0 3 0 q24 -11 36 -18 q1 -1 -1 -3 q-3 -1 -9 -2 q-52 -54 -64 -64 l56 0 q10 16 18 23 q0 0 2 0 q1 0 2 0 q18 -13 30 -23 q2 -4 -2 -6 l-79 0 q1 -2 -6 -8 l0 -74 q-1 -12 13 -11 l38 0 q17 -3 26 38 q0 1 1 1 q1 -1 2 -2 q-7 -27 5 -41 q3 -1 3 -2 q0 -20 -32 -21 l-55 0 q-30 1 -30 21 l0 99 l-22 0 q1 -1 3 -2 q1 0 2 0 q0 -1 1 -3 q-1 -1 -2 -2 q-7 -3 -6 -6 q-1 -89 -95 -113 q-4 2 -1 2 q69 33 69 124 ZM41 182 q38 -10 49 -38 q3 -17 -8 -27 q-16 -10 -21 4 q-3 6 -4 19 q-2 26 -17 40 q-2 2 1 2 Z" /><glyph glyph-name="" unicode="&#x514b;" d="M67 127 l0 -51 l106 0 l0 51 l-106 0 ZM80 71 l-13 0 l0 -6 q-1 -7 -14 -10 q-15 -2 -16 5 l3 64 q0 3 -1 10 q-1 6 0 10 q-1 1 2 2 q4 -3 13 -7 q8 -5 13 -7 l34 0 l2 35 l-75 0 q-2 -1 -17 -1 l-5 7 q4 -1 8 -1 l89 0 l1 26 l-1 15 q2 1 3 2 q15 -2 35 -7 q0 -2 0 -4 l-7 -4 l-4 -28 l65 0 q7 13 18 24 q1 0 4 0 q18 -13 30 -23 q2 -5 -2 -6 l-115 0 l-4 -35 l42 0 q7 9 10 13 q2 0 4 0 q15 -6 28 -15 q0 -2 0 -4 q-2 -2 -5 -4 q-2 -1 -2 -1 l2 -58 q0 -7 -15 -8 q-16 -1 -17 5 l0 11 l-13 0 q0 -2 -3 -7 q-2 -3 -2 -4 l0 -45 q-2 -15 13 -14 l35 0 q27 -1 36 45 q2 3 5 0 q-8 -33 2 -45 q4 -2 4 -8 q-3 -16 -23 -16 l-80 0 q-18 3 -19 18 l0 76 l-30 0 q12 -3 22 -6 q1 -1 1 -4 q-1 -1 -5 -3 q-4 -2 -4 -3 q-17 -76 -103 -85 q-2 1 -2 2 q-1 1 1 1 q64 19 72 98 Z" /><glyph glyph-name="" unicode="&#x5151;" d="M173 79 l0 64 l-101 0 l0 -64 l101 0 ZM147 148 l21 0 q7 9 14 10 q19 -5 29 -13 q-1 -6 -8 -10 l2 -63 q-1 -6 -14 -10 q-17 -3 -18 2 l0 9 l-16 0 q-6 -5 -5 -8 l0 -50 q-2 -15 14 -14 l29 0 q29 -1 43 47 q1 4 3 4 q1 0 0 -4 q-8 -23 2 -40 q5 -8 5 -11 q-5 -18 -36 -21 l-60 0 q-28 0 -27 24 l0 73 l-38 0 q9 -1 18 -3 q5 -1 11 -1 q3 -1 3 -3 q0 -2 -3 -4 q-2 -2 -3 -3 q-3 -1 -2 -3 q-18 -72 -97 -85 q-5 0 -6 1 q0 1 5 2 q60 25 70 99 l-11 0 l0 -7 q-1 -4 -12 -6 q-13 -2 -15 1 q-1 1 -1 10 q1 11 1 20 l0 49 q0 8 -2 16 q-1 3 0 3 q0 1 4 1 q11 -5 25 -12 l64 0 q7 17 21 55 q-1 -3 2 5 q0 6 7 3 q4 -3 14 -7 q10 -5 15 -7 q3 -2 3 -3 q0 -2 -4 -3 q-2 -1 -5 -2 q-2 0 -2 -1 q-10 -10 -40 -40 ZM66 207 q31 -3 41 -21 q5 -14 -4 -23 q-12 -9 -23 -1 q-6 4 -7 20 q-1 18 -8 22 q-4 1 -4 2 q0 1 5 1 Z" /><glyph glyph-name="" unicode="&#x5154;" d="M101 124 l-42 0 l0 -51 l36 0 q7 28 6 51 ZM123 73 l64 0 l0 51 l-49 0 q-2 -3 -5 -4 q-3 -2 -3 -3 q-2 -25 -7 -44 ZM130 169 l-39 0 q-17 -18 -36 -34 q3 -3 6 -6 l51 0 q1 3 5 10 q10 21 13 30 ZM163 160 l-41 -31 l59 0 q1 1 4 5 q3 4 6 7 q1 1 3 1 q1 0 2 0 q17 -9 27 -15 q1 -1 0 -3 q-3 -6 -7 -8 l3 -48 q-1 -6 -15 -9 q-16 -2 -17 4 l0 5 l-41 0 q1 0 3 -1 q1 0 2 0 q2 -1 1 -5 q0 -2 -4 -4 q-1 -1 -1 -1 l0 -48 q0 -9 13 -9 l40 0 q28 -5 41 44 q2 1 2 -1 q-8 -28 2 -47 q3 -4 3 -6 q-2 -15 -24 -16 l-73 0 q-32 0 -31 24 l0 67 q-25 -77 -109 -97 q-3 1 -1 3 q63 30 84 97 l-35 0 l0 -3 q-1 -6 -14 -8 q-15 -2 -16 3 l3 59 q-5 -3 -12 -7 q-7 -5 -11 -7 q-3 0 -3 2 q53 47 73 106 q1 1 5 2 q5 -2 12 -4 q13 -3 27 -7 q1 -2 0 -4 q-8 -1 -11 -5 q-8 -11 -16 -20 l34 0 q3 3 5 5 q4 5 7 8 q0 0 1 0 q2 0 4 0 q1 -1 4 -3 q20 -9 30 -15 q0 -1 0 -4 q-16 -5 -18 -6 ZM157 57 q35 0 45 -20 q3 -13 -7 -21 q-12 -7 -18 4 q-2 2 -4 10 q-2 18 -17 24 q0 2 1 3 Z" /><glyph glyph-name="" unicode="&#x5165;" d="M130 77 q-64 -77 -121 -95 q-2 1 -3 1 q0 1 2 2 q66 53 109 146 q-4 23 -6 42 q-1 13 -1 19 q-1 3 -2 8 q-2 5 -1 7 q-1 0 -1 1 q-1 2 1 3 q22 -2 30 -6 q1 -2 0 -4 q0 -1 -4 -4 q-4 -3 -3 -3 q7 -150 120 -183 q2 -1 2 -3 q0 -2 -2 -2 q-19 -5 -33 -24 q-2 -1 -4 0 q-58 23 -83 95 Z" /><glyph glyph-name="" unicode="&#x5168;" d="M25 -18 l79 0 l0 49 l-39 0 q-9 -1 -17 -1 l-5 7 q4 -1 9 -1 l52 0 l0 53 l-28 0 q-10 0 -17 0 l-5 7 q4 -1 8 -1 l82 0 q1 1 7 9 q6 7 8 9 q0 0 2 0 q1 0 2 0 q18 -11 25 -19 q2 -4 -1 -5 l-48 0 q3 -4 -6 -10 l0 -43 l23 0 q0 0 0 1 q12 16 17 20 q0 0 3 0 q25 -15 29 -22 q1 -4 -2 -4 l-70 0 l0 -49 l48 0 q8 14 19 22 q1 0 3 0 q22 -13 30 -22 q2 -3 -1 -5 l-194 0 q-8 0 -16 -1 l-6 7 q4 0 9 -1 ZM135 191 l-1 0 q31 -58 116 -71 q3 -2 1 -4 q-21 -14 -26 -26 q-1 -1 -1 -2 q-2 -4 -3 -3 q-63 23 -90 101 q-53 -83 -125 -108 q-3 -1 -4 0 q-1 2 1 4 q62 38 97 128 q1 3 5 3 l36 -13 q4 -3 1 -5 q-2 -2 -5 -3 q-2 -1 -2 -1 Z" /><glyph glyph-name="" unicode="&#x516b;" d="M80 155 q18 -6 34 -12 q3 -2 3 -3 q0 -1 -3 -4 q-2 -1 -3 -2 q-2 -1 -3 -4 q-36 -112 -96 -146 q-4 -2 -5 -1 q-1 0 1 2 q58 61 66 165 q0 1 0 2 q0 6 3 3 q1 0 3 0 ZM128 203 q9 -2 24 -6 q2 -1 2 -3 q0 -1 -2 -3 q-2 -3 -5 -6 q-3 -126 100 -174 q4 -2 4 -3 q0 -2 -5 -2 q-15 -1 -28 -18 q-2 -3 -2 -4 q-85 55 -85 188 q0 11 -5 21 q-1 3 -1 6 q-1 3 -1 3 q1 1 4 1 Z" /><glyph glyph-name="" unicode="&#x516c;" d="M73 188 q17 -8 35 -15 q0 -1 0 -4 q0 -1 0 -1 q-4 -2 -6 -3 q-5 -1 -7 -6 q-33 -55 -86 -85 q-4 -2 -1 2 q37 38 61 110 q1 3 4 2 ZM133 212 q12 -2 28 -5 q2 -1 0 -4 q-3 -5 -6 -7 q18 -73 94 -87 q1 -1 0 -3 q-19 -8 -29 -27 q-1 -2 -3 -2 q-60 27 -79 113 q-1 4 -5 13 q-1 4 -1 6 q-1 2 1 3 ZM75 12 l97 2 q-7 20 -25 35 q-3 3 1 2 q48 -14 64 -43 q5 -17 -6 -28 q-13 -11 -24 0 q-4 4 -6 18 q-2 5 -2 9 q-68 -9 -127 -27 q-1 0 -2 0 q-3 0 -3 2 q-8 18 -9 24 q-2 2 2 4 q36 9 66 96 q0 3 4 2 q5 -3 28 -15 q6 -3 8 -3 q1 -2 -1 -4 q-4 -3 -9 -5 q-5 -1 -5 -5 q-2 -3 -5 -7 q-34 -44 -46 -57 Z" /><glyph glyph-name="" unicode="&#x516d;" d="M14 132 l186 0 q9 13 18 24 q2 0 4 0 q18 -13 30 -23 q2 -5 -1 -6 l-223 0 q-2 -1 -17 -1 l-5 7 q4 -1 8 -1 ZM102 206 q39 -10 44 -36 q1 -17 -14 -26 q-17 -7 -24 6 q-3 6 0 17 q4 20 -8 36 q-1 3 2 3 ZM79 100 q27 -10 39 -16 q1 -2 0 -4 q-9 -5 -9 -6 q-35 -65 -92 -97 q-3 0 -2 3 q45 51 60 118 q-1 3 4 2 ZM152 94 q71 -36 87 -80 q5 -17 -7 -30 q-15 -12 -24 2 q-5 8 -11 26 q-15 50 -47 79 q-2 1 -1 2 q1 1 3 1 Z" /><glyph glyph-name="" unicode="&#x516e;" d="M68 193 q17 -9 35 -19 q0 -1 0 -4 q-9 -3 -11 -5 q-37 -56 -85 -81 q-2 -1 -1 2 q39 41 58 106 q0 2 4 1 ZM138 212 q12 -2 24 -5 q1 0 1 -1 q0 -1 0 -2 q-3 -4 -6 -8 q29 -64 92 -69 q1 -1 0 -2 q-20 -8 -26 -28 q-1 -1 -1 -1 q-2 -2 -3 -1 q-43 17 -78 101 q-4 9 -5 13 q0 2 2 3 ZM90 111 l-9 0 q-9 -1 -17 -1 l-5 7 q4 -1 9 -1 l68 0 q9 12 15 18 q0 0 2 0 q1 0 2 0 q13 -9 22 -19 q1 -4 -1 -4 l-49 0 q-2 -3 -6 -5 q-4 -2 -4 -3 l-19 -38 l59 0 q7 8 10 12 q0 1 3 1 q0 0 1 0 q13 -6 30 -16 q1 -2 0 -3 q-2 -2 -4 -3 q-5 -4 -4 -7 q-14 -83 -69 -81 q-4 0 -5 3 q-7 21 -30 29 q-1 2 1 2 q64 -26 73 58 l-65 0 q-7 -8 -13 -10 q-2 -2 -3 0 q-3 1 -12 9 q-9 7 -11 9 q-2 1 1 3 q11 -4 30 40 Z" /><glyph glyph-name="" unicode="&#x5170;" d="M30 55 l144 0 q2 2 8 9 q6 8 9 11 q2 1 4 0 q21 -13 29 -21 q0 -4 -3 -5 l-177 0 q-10 0 -17 0 l-5 7 q4 -1 8 -1 ZM14 -21 l183 0 q8 14 19 22 q1 0 3 0 q19 -9 30 -21 q2 -4 -1 -6 l-220 0 q-2 0 -17 -1 l-5 7 q4 0 8 -1 ZM48 207 q44 -15 55 -41 q6 -18 -10 -28 q-18 -9 -25 8 q-2 6 -3 17 q-4 23 -20 39 q-2 3 3 5 ZM149 129 l44 0 q0 0 0 1 q12 16 17 20 q1 1 3 0 q25 -15 29 -22 q1 -4 -2 -4 l-212 0 q-2 -1 -17 -1 l-5 7 q4 -1 8 -1 l119 0 q2 10 5 20 q12 40 15 62 q2 3 7 3 q22 -8 39 -15 q3 -4 0 -7 q-3 -2 -10 -5 q-7 -4 -7 -4 q-2 -3 -3 -5 q-19 -35 -30 -49 Z" /><glyph glyph-name="" unicode="&#x5173;" d="M131 71 l-4 0 q-6 -85 -121 -104 q-4 3 -1 5 q87 24 93 99 l-70 0 q-2 -1 -17 -1 l-5 7 q4 -1 8 -1 l84 0 q1 6 1 13 l0 43 l-61 0 q-8 -1 -16 -1 l-6 7 q4 -1 9 -1 l98 0 q20 43 32 76 q3 2 6 1 q16 -10 35 -23 q3 -4 -1 -7 q-10 -1 -15 -2 q-8 -7 -23 -23 q-16 -16 -23 -22 l47 0 q8 13 19 24 q1 0 3 0 q22 -15 30 -23 q2 -5 -1 -6 l-98 0 q1 -2 -6 -8 l0 -35 q0 -7 0 -13 l67 0 q7 13 18 24 q1 0 4 0 q18 -13 30 -23 q2 -5 -2 -6 l-106 0 q25 -66 109 -65 q4 -4 0 -6 q-24 -6 -28 -29 q-2 -2 -6 -1 q-58 23 -83 101 ZM51 209 q40 -12 52 -36 q4 -21 -11 -27 q-20 -6 -22 10 q-2 27 -22 48 q-3 3 3 5 Z" /><glyph glyph-name="" unicode="&#x5174;" d="M38 192 q46 -33 50 -62 q2 -22 -16 -30 q-19 -4 -23 17 q-1 2 0 9 q1 6 1 11 q0 24 -16 51 q-1 4 4 4 ZM98 206 q51 -39 51 -74 q-1 -20 -19 -23 q-20 -1 -21 19 q0 2 1 9 q0 3 1 5 q3 24 -18 60 q-1 5 5 4 ZM241 181 l-17 -8 q-15 -27 -50 -83 q-3 -4 -4 -6 l30 0 q9 13 18 24 q2 0 4 0 q18 -13 30 -23 q2 -5 -1 -6 l-223 0 q-2 -1 -17 -1 l-5 7 q4 -1 8 -1 l147 0 q21 59 31 121 q1 2 5 2 q35 -15 44 -20 q2 -2 0 -6 ZM119 40 l-13 -5 q-43 -37 -94 -57 q-3 0 -2 3 q43 26 70 81 q0 0 1 0 q2 0 4 1 q26 -12 34 -18 q1 -1 0 -5 ZM146 56 q66 -12 85 -38 q11 -17 0 -30 q-14 -12 -27 2 q-5 5 -11 13 q-2 4 -3 7 q-13 21 -45 40 q-4 5 1 6 Z" /><glyph glyph-name="" unicode="&#x5175;" d="M133 55 l0 72 l-45 0 l0 -72 l45 0 ZM112 175 l-24 0 l0 -43 l93 0 q10 12 19 24 l3 0 q5 -5 14 -12 q9 -8 15 -12 l0 -5 l-63 0 q-1 -5 -6 -8 l0 -64 l37 0 q13 19 18 23 q0 0 4 0 q18 -13 30 -23 q2 -4 -1 -6 l-223 0 q-10 0 -17 0 l-5 7 q4 -1 8 -1 l45 0 l0 136 q7 2 29 -14 q48 13 82 33 q5 4 10 -1 q1 -2 6 -6 q13 -10 19 -15 q3 -4 2 -5 q0 -1 -3 -1 q-62 -7 -92 -7 ZM92 41 q6 -4 25 -19 q4 -3 3 -5 q-1 -2 -7 -3 q-3 -1 -5 -1 q-2 0 -5 -2 q-56 -26 -92 -34 q-7 -1 -2 2 q47 25 73 60 q4 8 10 2 ZM145 38 q53 -7 76 -29 q14 -15 8 -28 q-11 -15 -26 -5 q-3 2 -9 13 q-28 40 -50 46 q-5 1 -5 2 q1 1 6 1 Z" /><glyph glyph-name="" unicode="&#x5176;" d="M152 161 l0 51 q25 -2 34 -6 q3 -2 0 -5 q-4 -4 -7 -5 l0 -35 l14 0 q0 0 0 1 q12 16 17 20 q1 1 3 0 q25 -15 29 -22 q1 -4 -2 -4 l-61 0 l0 -115 l21 0 q9 13 18 24 q2 0 4 0 q18 -13 30 -23 q2 -5 -1 -6 l-226 0 q-9 -1 -17 -1 l-5 7 q4 -1 9 -1 l55 0 l0 115 l-37 0 q-8 -1 -16 -1 l-6 7 q4 -1 9 -1 l50 0 l0 38 l-1 13 q0 -1 0 -1 q0 2 1 2 q1 -1 3 -1 q20 -2 29 -4 q2 -2 1 -3 q-3 -4 -6 -6 l0 -38 l58 0 ZM152 121 l0 35 l-58 0 l0 -35 l58 0 ZM152 84 l0 32 l-58 0 l0 -32 l58 0 ZM152 41 l0 38 l-58 0 l0 -38 l58 0 ZM90 32 q3 -3 8 -6 q17 -11 21 -13 q1 -3 0 -4 q-3 -2 -7 -2 q-5 -1 -7 -2 q-42 -21 -94 -32 q-2 2 -1 3 q44 22 75 56 q1 2 5 0 ZM144 29 q52 -1 75 -23 q10 -14 3 -27 q-10 -14 -22 -5 q-4 3 -10 14 q-20 30 -46 39 q-3 0 0 2 Z" /><glyph glyph-name="" unicode="&#x5177;" d="M91 76 l0 -35 l72 0 l0 35 l-72 0 ZM91 113 l0 -32 l72 0 l0 32 l-72 0 ZM91 151 l0 -32 l72 0 l0 32 l-72 0 ZM91 191 l0 -35 l72 0 l0 35 l-72 0 ZM61 41 l0 165 q8 4 30 -10 l66 0 q1 0 6 6 q2 4 3 4 q17 -4 34 -15 q0 -2 -6 -6 q-3 -2 -2 -2 l0 -142 l9 0 q0 0 0 1 q12 16 17 20 q1 1 3 0 q25 -15 29 -22 q1 -4 -2 -4 l-220 0 q-2 -1 -17 -1 l-5 7 q4 -1 8 -1 l47 0 ZM87 31 q19 -9 33 -17 q0 -1 0 -5 q-7 -2 -11 -2 q-3 -1 -9 -4 q-60 -23 -88 -31 q-5 2 -2 4 q36 20 73 55 q0 0 4 0 ZM137 29 q56 -1 79 -23 q14 -12 3 -27 q-13 -12 -27 1 q-1 1 -1 1 q-21 32 -55 45 q-2 0 -2 1 q1 1 3 2 Z" /><glyph glyph-name="" unicode="&#x517b;" d="M68 211 q26 -4 35 -14 q7 -13 -2 -22 q-13 -10 -20 1 q-2 2 -3 7 q0 2 0 4 q0 7 -11 20 q-2 3 1 4 ZM220 35 q-27 8 -43 20 l-4 -3 l2 -76 q-4 -7 -17 -8 q-9 1 -9 9 l0 75 q0 3 -1 9 q-1 3 0 6 q0 1 2 2 q7 -2 15 -3 q-13 13 -20 34 l-27 0 q-9 -16 -22 -29 q0 -1 2 -1 q11 -2 16 -3 q1 -2 0 -4 l-7 -6 l0 -16 q4 -64 -88 -74 q-3 1 -3 3 q-1 2 2 2 q64 17 65 67 l0 21 l0 1 q-26 -18 -74 -30 q-5 3 -1 6 q59 18 81 63 l-59 0 q-8 -1 -16 -1 l-6 7 q4 -1 9 -1 l74 0 q6 12 9 27 l-54 0 q-8 -1 -16 -1 l-6 7 q4 -1 9 -1 l68 0 q3 13 3 27 l-68 0 q-2 -1 -17 -1 l-5 7 q4 -1 8 -1 l118 0 q7 25 9 41 q3 1 5 1 q16 -5 28 -9 q1 -1 0 -5 l-11 -4 q-3 -3 -7 -10 q-5 -7 -12 -14 l43 0 q1 3 10 13 q3 4 5 6 q0 0 3 0 q16 -9 26 -20 q2 -4 -2 -4 l-97 0 q0 -2 0 -1 l-6 -5 q-2 -11 -4 -21 l49 0 q7 11 15 18 q1 1 3 0 q13 -8 23 -19 q1 -3 -1 -4 l-90 0 q-3 -13 -9 -27 l80 0 q4 7 15 18 q2 1 4 0 q13 -9 22 -19 q1 -3 -1 -4 l-88 0 q33 -38 93 -32 q1 -2 0 -5 q-16 -8 -20 -26 q-2 -3 -5 -2 Z" /><glyph glyph-name="" unicode="&#x517c;" d="M152 92 l0 -32 l24 0 l0 32 l-24 0 ZM152 124 l0 -27 l24 0 l0 27 l-24 0 ZM128 129 l0 24 l-19 0 q-5 -4 -5 -8 l0 -16 l24 0 ZM128 97 l0 27 l-24 0 l0 -27 l24 0 ZM128 60 l0 32 l-24 0 l0 -32 l24 0 ZM158 55 l-6 0 l0 -34 q0 -9 0 -26 q1 -12 1 -16 q-12 -15 -25 -5 l0 81 l-24 0 l0 -76 q-7 -10 -23 -6 q-1 3 0 12 q2 15 2 27 l0 16 q-26 -28 -73 -49 q-4 1 -1 2 q38 23 63 74 l-12 0 q-2 -1 -17 -1 l-5 7 q4 -1 8 -1 l37 0 l0 32 l-53 0 q-8 -1 -16 -1 l-6 7 q4 -1 9 -1 l66 0 l0 27 l-21 0 l-17 0 l-1 6 q4 -1 8 -1 l31 0 l0 24 l-47 0 q-10 0 -17 0 l-5 7 q4 -1 8 -1 l175 0 q6 8 16 18 q0 0 3 0 q13 -9 22 -20 q2 -3 -1 -4 l-77 0 q0 -1 -1 -2 q-1 0 -1 0 q-7 -5 -6 -6 l0 -16 l21 0 q7 7 11 10 q2 1 5 0 q1 -1 3 -2 q12 -6 17 -9 q1 -1 1 -4 q-4 -5 -7 -8 l0 -19 l5 0 q4 7 15 18 q2 1 4 0 q13 -9 22 -19 q1 -3 -1 -4 l-45 0 l0 -35 q-1 -6 -13 -9 q-13 -2 -14 4 l0 3 l-14 0 q32 -44 81 -45 q1 -1 0 -3 q-12 -5 -18 -23 q-1 1 -2 -1 q-1 -1 -1 -1 q-47 12 -64 73 ZM59 209 q34 -4 43 -23 q4 -12 -5 -22 q-10 -7 -18 2 q-3 2 -4 10 q-3 17 -16 31 q-2 2 0 2 ZM144 159 l-5 0 q7 27 16 54 q1 2 3 1 q13 -3 30 -11 q1 -1 -1 -4 q-2 -1 -3 -1 q-2 1 -4 -2 q-2 -2 -8 -8 q-18 -20 -28 -29 Z" /><glyph glyph-name="" unicode="&#x517d;" d="M139 121 l0 -29 l48 0 l0 29 l-48 0 ZM139 148 l0 -22 l48 0 l0 33 l-41 0 q0 -1 0 -2 q-1 -1 -3 -4 q-4 -4 -4 -5 ZM112 126 l0 33 l-48 0 l0 -33 l48 0 ZM112 92 l0 29 l-48 0 l0 -29 l48 0 ZM146 164 l12 47 q3 0 4 1 q15 -6 31 -14 q4 -4 0 -6 q-3 0 -9 -2 q-2 0 -3 0 q-5 -6 -10 -13 q-8 -10 -11 -13 l19 0 q6 6 10 9 q2 1 4 0 q14 -7 27 -15 q1 -1 2 -4 q-2 -2 -4 -3 q-3 0 -4 -1 l0 -66 q-24 -16 -27 0 l0 3 l-123 0 l0 -9 q-24 -13 -27 0 l0 78 q0 5 -1 14 q-1 6 0 7 q0 2 3 2 q6 -3 22 -15 l85 0 ZM14 60 l194 0 q9 11 15 18 q2 1 4 0 q10 -5 24 -19 q3 -5 0 -4 l-223 0 q-2 -1 -17 -1 l-5 7 q4 -1 8 -1 ZM180 -16 l-105 0 l0 -5 q-3 -6 -17 -9 q-10 -1 -10 5 l0 56 q-1 4 -1 6 q0 3 0 6 q2 1 3 2 q10 -5 23 -12 l103 0 q1 0 4 3 q4 5 7 6 q-1 1 3 1 q9 -6 23 -15 q2 -2 1 -4 q-1 -2 -3 -3 q-2 -1 -3 -1 l0 -41 q-4 -7 -19 -8 q-9 0 -9 8 l0 5 ZM75 -10 l105 0 l0 38 l-105 0 l0 -38 ZM63 210 q31 -2 45 -18 q7 -16 -6 -24 q-16 -6 -22 9 q-1 2 -2 5 q-1 14 -17 24 q-3 2 2 4 Z" /><glyph glyph-name="" unicode="&#x5185;" d="M104 145 l-50 0 l0 -117 q48 44 50 117 ZM54 26 l0 -44 q-1 -6 -13 -8 q-14 -1 -14 4 l0 158 q-2 24 -1 26 q1 1 3 1 q18 -8 27 -12 l48 0 l0 45 l-1 13 q0 3 3 3 q27 -3 34 -6 q2 -1 0 -5 q-2 -2 -6 -5 l0 -45 l53 0 q8 9 11 12 q2 1 5 0 q17 -9 26 -16 q1 -3 0 -5 q-2 -2 -5 -4 q-2 -1 -2 -1 l2 -138 q1 -25 -30 -30 q-5 0 -6 3 q-5 21 -32 26 q-4 2 0 6 q41 -5 39 7 l0 134 l-61 0 q-2 -23 -9 -43 q43 -14 55 -39 q6 -17 -7 -26 q-13 -6 -21 10 q0 0 -1 4 q-9 31 -29 46 q-17 -43 -64 -74 q-4 -1 -4 3 Z" /><glyph glyph-name="" unicode="&#x518c;" d="M53 193 l0 -90 l33 0 l0 90 l-33 0 ZM155 193 l0 -90 l34 0 l0 90 l-34 0 ZM131 60 l0 37 l-20 0 l1 -100 q-5 -19 -33 -23 q-2 1 -2 2 q-6 15 -23 23 q-3 1 1 3 q30 -5 31 6 l0 89 l-33 0 l0 -26 q-1 -66 -46 -98 q-4 0 -3 3 q24 32 25 71 l0 50 l-4 0 q-9 0 -17 0 l-5 7 q4 -1 9 -1 l17 0 l0 82 l-1 23 q0 1 2 1 q13 -4 23 -10 l27 0 q1 0 4 5 q3 4 5 5 q2 1 4 1 q13 -5 22 -16 q0 -4 0 -5 q-2 -2 -4 -3 q-1 -1 -2 -1 l2 -82 l20 0 l0 83 l-1 23 q-1 0 1 1 q18 -8 24 -11 l29 0 q1 1 5 5 q2 3 4 5 q0 0 1 0 q2 0 3 0 q10 -3 22 -14 q0 -1 0 -1 q0 -2 0 -3 q-2 -3 -6 -6 l2 -81 q7 11 14 17 q0 0 3 0 q13 -9 22 -20 q2 -3 -1 -4 l-38 0 l1 -109 q-3 -13 -31 -17 q-2 0 -2 1 q-7 20 -26 24 q-4 3 0 4 q30 -5 32 1 l0 96 l-34 0 l0 -26 q-3 -69 -51 -100 q-2 -1 -3 1 q-1 1 1 2 q28 30 29 86 Z" /><glyph glyph-name="" unicode="&#x518d;" d="M136 92 l0 -40 l37 0 l0 40 l-37 0 ZM136 137 l0 -40 l37 0 l0 40 l-37 0 ZM109 143 l0 40 l-71 0 q-8 -1 -16 -1 l-6 7 q4 -1 9 -1 l155 0 q0 0 0 1 q12 16 17 20 q0 0 3 0 q25 -15 29 -22 q1 -4 -2 -4 l-86 0 q0 -2 -3 -7 q-2 -3 -2 -4 l0 -29 l32 0 q4 6 10 12 q2 1 4 1 q9 -5 25 -15 q1 -2 0 -4 q-2 -5 -7 -8 l0 -77 l4 0 q0 0 0 1 q12 16 17 20 q0 0 3 0 q25 -15 29 -22 q1 -4 -2 -4 l-51 0 l0 -24 q0 -20 1 -32 q1 -3 1 -4 q-9 -12 -33 -13 q-4 1 -4 2 q-7 20 -28 24 q-2 0 1 2 q24 -5 35 0 l0 45 l-98 0 l0 -65 q-1 -6 -14 -8 q-14 -1 -14 4 q0 4 0 16 q1 19 1 29 l0 24 l-20 0 q-2 -1 -17 -1 l-5 7 q4 -1 8 -1 l34 0 l0 99 q17 -4 28 -8 l33 0 ZM109 97 l0 40 l-31 0 q-1 -1 -3 -2 l0 -38 l34 0 ZM109 52 l0 40 l-34 0 l0 -40 l34 0 Z" /><glyph glyph-name="" unicode="&#x519b;" d="M130 165 l-12 -6 l-11 -19 l77 0 q4 6 15 18 q2 1 4 0 q17 -9 25 -19 q2 -4 -1 -4 l-123 0 l-32 -54 l43 0 l0 40 q19 1 30 -2 q3 -3 0 -5 q-1 -3 -5 -5 q-1 -1 -1 -1 l0 -27 l37 0 q1 3 10 13 q3 4 5 6 q2 0 4 0 q18 -11 25 -20 q2 -4 -1 -4 l-80 0 l0 -43 l62 0 q0 0 0 1 q12 16 17 20 q1 1 3 0 q25 -15 29 -22 q1 -4 -2 -4 l-108 0 l0 -49 q-5 -7 -19 -8 q-8 0 -8 9 l1 48 l-84 0 q-8 -1 -16 -1 l-6 8 q0 -1 9 -2 l97 0 l1 43 l-46 0 q-1 -2 -2 -4 q-2 -2 -2 -3 q-4 -2 -7 1 q-2 1 -9 9 q-7 7 -8 9 q-3 3 0 5 q1 0 4 2 q4 2 6 4 q2 1 22 36 l-35 0 q-8 -1 -16 -1 l-6 7 q4 -1 9 -1 l51 0 q16 32 20 42 q2 1 4 1 q16 -6 30 -14 q0 -1 0 -4 ZM211 188 l-171 0 q3 -15 -3 -24 q-10 -15 -24 -9 q-13 10 -3 23 q0 0 4 4 q2 1 3 2 q9 11 8 24 q-1 1 0 1 q1 0 3 0 q6 -5 11 -16 l169 0 q6 10 8 13 q1 1 4 0 q18 -11 33 -23 q2 -4 -2 -6 q-32 -2 -48 -17 q-4 -1 -3 3 q2 6 11 25 Z" /></font>
</defs>
</svg>
